<?xml version="1.0" standalone="no"?>
<!DOCTYPE svg PUBLIC "-//W3C//DTD SVG 1.1//EN" "http://www.w3.org/Graphics/SVG/1.1/DTD/svg11.dtd" >
<svg xmlns="http://www.w3.org/2000/svg">
<metadata>Generated by IcoMoon</metadata>
<defs>
<font id="icomoon" horiz-adv-x="1024">
<font-face units-per-em="1024" ascent="960" descent="-64" />
<missing-glyph horiz-adv-x="1024" />
<glyph unicode="&#x20;" horiz-adv-x="512" d="" />
<glyph unicode="&#xe900;" glyph-name="minus-circle" d="M512 959.983c282.295 0 511.979-229.677 511.979-511.961s-229.685-511.999-511.979-511.999c-282.295 0-511.979 229.713-511.979 511.999s229.685 511.961 511.979 511.961zM512 846.226c-219.566 0-398.219-178.646-398.219-398.204s178.652-398.204 398.219-398.204c219.566 0 398.219 178.646 398.219 398.204s-178.652 398.204-398.219 398.204zM682.671 504.929v-113.793h-341.357v113.793h341.357z" />
<glyph unicode="&#xe901;" glyph-name="plus-circle" d="M511.982 959.986c282.326 0 512.006-229.68 512.006-511.968s-229.68-512.006-512.006-512.006c-282.288 0-511.968 229.716-511.968 512.006s229.68 511.968 511.968 511.968zM511.982 846.228c-219.561 0-398.21-178.648-398.21-398.21s178.648-398.21 398.21-398.21c219.599 0 398.21 178.648 398.21 398.21s-178.611 398.21-398.21 398.21zM568.873 618.678v-113.795h113.795v-113.759h-113.795v-113.795h-113.759v113.795h-113.795v113.759h113.795v113.795h113.759z" />
<glyph unicode="&#xe902;" glyph-name="add-user" horiz-adv-x="1008" d="M432.938 839.968c62.295-0.765 100.589-53.783 131.119-79.454 31.635-26.588 17.474-71.553 22.606-126.148 2.372-25.356 18.124-7.104 28.387-40.67 7.763-25.293-1.722-92.551-22.346-116.012-20.3-23.113-18.708-88.194-51.869-112.886-35.37-26.303-57.489-6.567-3.248-112.76 27.347-53.586 206.504-34.134 241.776-80.994 24.020-31.829 26.689-97.964 26.985-112.268l0.037-2.767h-806.366l0.046 2.767c0.314 14.303 2.957 80.439 26.977 112.268 35.272 46.86 214.429 27.409 241.776 80.931 54.274 106.256 32.089 86.52-3.248 112.823-33.162 24.692-31.57 89.773-51.869 112.886-20.592 23.461-30.109 90.72-22.346 116.012 10.263 33.566 26.017 15.315 28.387 40.67 5.164 54.596 4.255 197.765 138.655 183.808 28.224 15.757 52.844 22.040 74.54 21.796zM907.195 594.982v-98.014h100.784v-98.014h-100.784v-97.982h-100.816v97.982h-100.784v98.014h100.784v98.014h100.816z" />
<glyph unicode="&#xe903;" glyph-name="alarm-clock" d="M569.157 959.979v-117.717c225.222-28.155 400.124-219.522 400.124-451.142 0-250.94-205.145-455.102-457.295-455.102s-457.295 204.162-457.295 455.102c0 231.619 174.94 422.986 400.16 451.142v0 117.717h114.306zM511.985 732.429c-189.122 0-342.953-153.131-342.953-341.307 0-188.214 153.831-341.345 342.953-341.345s342.99 153.131 342.99 341.345c0 188.178-153.868 341.307-342.99 341.307zM569.149 618.639v-170.654h114.342v-113.757h-228.648v284.411h114.306zM114.325 957.52l80.82-80.433-114.306-113.793-80.82 80.469 114.306 113.757zM909.637 957.512l114.342-113.757-80.82-80.433-114.342 113.757 80.82 80.433z" />
<glyph unicode="&#xe904;" glyph-name="alert" d="M469.342 703.991h85.33v-298.657h-85.33zM554.674 234.674c0-56.887-85.33-56.887-85.33 0s85.33 56.887 85.33 0zM952.134 448.051c0-12.205-0.468-24.411-1.449-36.617-0.468-5.518-0.935-11.037-1.449-16.507 0-0.935-1.449-11.738-0.234-3.601-0.468-4.302-1.216-8.605-1.917-12.907-3.834-23.475-9.584-46.436-17.017-68.977-3.366-10.522-7.433-21.090-11.501-31.379-2.384-5.752 3.366 7.67-0.701-1.684-1.216-2.853-2.618-5.752-3.834-8.605-2.618-5.752-5.517-11.504-8.135-17.022-10.519-20.576-22.486-40.218-35.671-59.156-1.917-2.619-3.6-5.051-5.517-7.67-0.468-0.701-6.685-9.119-1.917-2.619-3.132-4.069-6.452-8.137-9.818-12.205-7.901-9.587-16.269-18.892-25.152-27.778-7.2-7.436-14.819-14.59-22.486-21.558-4.535-4.069-9.35-8.371-14.119-12.205-1.683-1.45-3.132-2.619-4.769-4.069-0.935-0.935-11.501-8.839-5.049-4.069-18.419-13.89-37.587-26.562-57.922-37.598-10.051-5.518-20.57-10.756-30.855-15.572-2.151-0.935-15.801-6.687-8.836-4.069-5.984-2.385-11.735-4.77-17.718-6.921-23.234-8.371-46.937-15.104-71.107-19.875-5.283-0.935-10.753-1.917-16.034-2.853-3.132-0.468-6.452-0.935-9.818-1.45 1.449 0.234 6.919 0.701-0.234 0-13.184-1.45-26.32-2.619-39.738-3.133-24.404-0.935-48.806 0.468-73.256 3.133-10.753 1.216 7.2-1.216-3.366 0.468-2.151 0.234-4.301 0.701-6.452 0.935-6.452 0.935-12.903 2.151-19.168 3.601-11.501 2.385-23.234 5.051-34.455 8.371-11.267 3.133-22.486 6.687-33.52 10.756-5.049 1.917-9.818 3.835-14.819 5.752-9.818 3.835 6.452-2.853-3.132 1.216-3.834 1.684-7.667 3.367-11.501 5.285-20.804 9.821-41.187 21.090-60.308 33.764-4.301 2.853-8.602 5.752-12.903 8.839-2.618 1.917-5.049 3.601-7.667 5.518 0.234-0.234-7.901 5.986-3.834 2.853s-4.067 3.133-3.834 2.853c-2.384 1.917-4.769 3.835-7.2 5.986-4.769 4.069-9.584 8.137-14.119 12.205-17.017 15.338-33.052 31.847-47.638 49.569-1.917 2.385-4.067 4.77-5.984 7.202-0.468 0.701-6.919 9.119-2.151 2.619-3.132 4.069-6.218 8.371-9.35 12.674-6.919 9.821-13.418 19.875-19.634 30.162-5.75 9.353-11.033 19.173-16.034 28.994-2.618 5.285-5.283 10.289-7.667 15.572-1.216 2.385-2.151 4.77-3.366 7.202-0.935 1.917-1.683 3.835-2.618 5.752 1.683-3.601 1.683-3.601 0 0.234-8.369 22.025-15.801 44.051-21.317 67.060-2.852 11.504-5.049 23.241-6.919 34.98-0.234 2.151-0.701 4.303-0.935 6.454-1.683 10.756 0.701-7.436-0.468 3.367-0.701 6.454-1.449 13.188-1.917 19.64-1.917 24.878-1.917 50.037 0.234 75.196 0.468 5.986 1.216 11.972 1.683 17.957 1.216 10.522-0.701-4.536 0.234 1.917 0.468 2.619 0.701 5.518 1.216 8.137 2.151 12.907 4.535 25.626 7.667 38.066 5.517 22.727 12.903 45.033 21.785 66.779-3.132-7.436 0.935 2.151 1.449 3.133 0.935 1.917 1.683 3.835 2.618 5.752 2.618 5.752 5.517 11.504 8.135 17.022 5.283 10.289 10.753 20.342 16.736 30.162s12.202 19.407 18.886 28.994c3.132 4.302 6.218 8.371 9.35 12.674-4.769-6.454 1.449 1.917 2.151 2.619 2.384 2.853 4.535 5.752 6.919 8.371 15.099 17.957 31.369 34.699 48.806 50.505 7.901 6.921 15.801 13.655 23.936 20.108-6.218-4.77 1.917 1.45 2.618 1.917 2.618 1.917 5.049 3.601 7.667 5.518 5.049 3.601 10.285 7.202 15.567 10.522 19.401 12.674 39.738 23.71 60.541 33.296 2.852 1.45 5.75 2.619 8.602 3.835 9.584 4.302-6.685-2.385 3.132 1.216 5.049 1.917 9.818 3.835 14.819 5.752 11.501 4.302 23.234 7.903 34.969 11.271 10.753 3.133 21.785 5.752 33.052 7.903 5.75 1.216 11.735 2.151 17.718 3.133 2.618 0.468 5.283 0.935 8.135 1.216 4.301 0.701 4.301 0.701 0.234 0 2.151 0.234 4.301 0.468 6.452 0.701 24.404 2.619 48.806 3.601 73.256 2.619 12.202-0.468 24.169-1.684 36.372-2.853 1.449-0.234 7.2-0.935 0.234 0 3.366-0.468 6.452-0.935 9.818-1.45 6.452-0.935 12.903-2.151 19.168-3.601 23.001-4.77 45.954-11.037 67.975-19.173 5.984-2.151 11.968-4.536 17.718-6.921-6.452 2.619 0 0 1.683-0.701 2.384-1.216 4.769-2.151 7.2-3.367 11.501-5.285 22.72-11.037 33.753-17.255 9.117-5.051 18.185-10.522 26.788-16.274 5.283-3.367 10.519-6.921 15.567-10.522 1.683-1.216 3.366-2.385 5.049-3.601 1.216-0.701 11.501-8.605 5.283-3.835 18.185-14.123 35.203-29.461 51.004-45.968 32.539-33.997 54.557-64.628 77.323-110.129 2.384-4.77 4.535-9.587 6.919-14.357 0.935-1.917 6.685-15.806 4.067-8.839 4.769-11.738 9.117-23.71 13.184-35.915 7.2-22.493 12.67-45.735 16.502-69.211 0.468-3.133 0.935-6.454 1.449-9.821-0.935 7.202 0 0 0.234-1.917 0.701-5.986 1.216-11.972 1.683-18.19 0.514-10.896 0.982-23.101 0.982-35.307 0-18.659 16.502-36.85 35.904-35.915s35.904 15.806 35.904 35.915c-0.468 105.125-32.539 209.743-93.826 295.459-61.523 85.719-146.464 150.579-245.582 186.781-198.919 72.531-432.066 8.839-566.322-154.697-67.975-83.099-108.646-183.872-116.781-290.922-7.901-104.378 17.718-211.191 71.808-300.739 52.64-87.402 132.114-159.461 225.236-201.602 99.811-45.033 210.887-57.707 318.371-35.915 203.694 41.433 369.091 213.334 400.459 419.005 4.067 27.31 6.685 54.574 6.685 82.351 0 18.659-16.502 36.85-35.904 35.915-19.401-0.701-35.951-15.525-35.951-35.635l-0.002-0.006z" />
<glyph unicode="&#xe905;" glyph-name="minus" d="M1023.969 388.475h-1023.94v119.033h1023.94v-119.033z" />
<glyph unicode="&#xe906;" glyph-name="cargo" d="M512 437.962c-47.985 0-87.036 39.051-87.036 87.036 0 41.058 28.611 75.592 66.959 84.627v49.189h40.156v-87.036h-20.077c-25.8 0-46.881-20.982-46.881-46.881s20.982-46.881 46.881-46.881 46.881 20.982 46.881 46.881h40.156c0-47.985-39.051-87.036-87.036-87.036zM933.628 36.409h-843.258v140.543h843.258v-140.543zM130.527 76.565h762.947v60.233h-762.947v-60.233zM933.628-63.978h-843.258v140.543h843.258v-140.543zM130.527-23.822h762.947v60.233h-762.947v-60.233zM933.628 136.798h-843.258v140.543h843.258v-140.543zM130.527 176.952h762.947v60.233h-762.947v-60.233zM512 638.737c-66.457 0-120.466 54.009-120.466 120.466s54.009 120.466 120.466 120.466 120.466-54.009 120.466-120.466-54.009-120.466-120.466-120.466zM512 839.512c-44.271 0-80.31-36.039-80.31-80.31s36.039-80.31 80.31-80.31 80.31 36.039 80.31 80.31-36.039 80.31-80.31 80.31zM879.52 237.185h-735.039l367.52 244.947 367.52-244.947zM277.192 277.341h469.715l-234.806 156.605-234.806-156.605zM546.232 759.202c0-18.906-15.327-34.233-34.233-34.233s-34.233 15.327-34.233 34.233c0 18.906 15.327 34.233 34.233 34.233s34.233-15.327 34.233-34.233zM391.534 959.978h40.156v-200.776h-40.156v200.776zM592.31 959.978h40.156v-200.776h-40.156v200.776z" />
<glyph unicode="&#xe907;" glyph-name="fishing" d="M906.053 134.306l-34.27 17.135 90.27 180.539h-455.56l-95.726 95.726h-339.254l154.119-231.179-31.877-21.155-193.749 290.624h426.652l95.726-95.726h501.605l-117.935-235.965zM437.858 427.705h-337.339l114.871 229.743h222.468v-229.743zM162.55 465.996h237.019v153.161h-160.533l-76.58-153.161zM496.558 358.276l191.519 478.587 35.55-14.226-191.519-478.587-35.55 14.226zM725.036 331.98h-38.291v516.826l229.743 1.34v-259.704c0-15.795 12.923-28.717 28.717-28.717s28.717 12.923 28.717 28.717v19.145h38.291v-19.145c0-36.95-30.058-67.008-67.008-67.008s-67.008 30.058-67.008 67.008v221.224l-153.161-0.958v-478.727zM897.343 123.106c-21.060 0-40.78 8.233-55.713 23.070l-11.487 11.487c-15.795 15.795-41.45 15.795-57.149 0l-11.487-11.487c-30.728-30.728-80.601-30.728-111.33 0l-11.487 11.487c-15.795 15.795-41.45 15.795-57.149 0l-11.487-11.487c-30.728-30.728-80.601-30.728-111.33 0l-11.487 11.487c-15.795 15.795-41.45 15.795-57.149 0l-11.487-11.487c-30.728-30.728-80.601-30.728-111.33 0l-11.487 11.487c-15.795 15.795-41.45 15.795-57.149 0l-11.487-11.487c-14.838-14.838-34.653-23.070-55.713-23.070s-40.78 8.233-55.713 23.070l-53.607 53.607 27.091 27.091 53.607-53.607c7.658-7.658 17.805-11.87 28.622-11.87s20.964 4.212 28.622 11.87l11.487 11.487c14.838 14.838 34.653 23.070 55.713 23.070s40.78-8.233 55.713-23.070l11.487-11.487c7.658-7.658 17.805-11.87 28.622-11.87s20.964 4.212 28.622 11.87l11.487 11.487c30.728 30.728 80.601 30.728 111.33 0l11.487-11.487c15.795-15.795 41.45-15.795 57.149 0l11.487 11.487c30.728 30.728 80.601 30.728 111.33 0l11.487-11.487c7.658-7.658 17.805-11.87 28.622-11.87s20.964 4.212 28.622 11.87l11.487 11.487c14.838 14.838 34.653 23.070 55.713 23.070s40.78-8.233 55.713-23.070l11.487-11.487c7.658-7.658 17.805-11.87 28.622-11.87s20.964 4.212 28.622 11.87l53.607 53.607 27.091-27.091-53.607-53.607c-14.838-14.838-34.653-23.070-55.713-23.070zM897.343-49.777c-21.060 0-40.78 8.233-55.713 23.070l-11.487 11.487c-15.795 15.795-41.45 15.795-57.149 0l-11.487-11.487c-30.728-30.728-80.601-30.728-111.33 0l-11.487 11.487c-15.795 15.795-41.45 15.795-57.149 0l-11.487-11.487c-30.728-30.728-80.601-30.728-111.33 0l-11.487 11.487c-15.795 15.795-41.45 15.795-57.149 0l-11.487-11.487c-30.728-30.728-80.601-30.728-111.33 0l-11.487 11.487c-15.795 15.795-41.45 15.795-57.149 0l-11.487-11.487c-14.838-14.838-34.653-23.070-55.713-23.070s-40.78 8.233-55.713 23.070l-53.607 53.607 27.091 27.091 53.607-53.607c7.658-7.658 17.805-11.87 28.622-11.87s20.964 4.212 28.622 11.87l11.487 11.487c14.838 14.838 34.653 23.070 55.713 23.070s40.78-8.233 55.713-23.070l11.487-11.487c7.658-7.658 17.805-11.87 28.622-11.87s20.964 4.212 28.622 11.87l11.487 11.487c30.728 30.728 80.601 30.728 111.33 0l11.487-11.487c15.795-15.795 41.45-15.795 57.149 0l11.487 11.487c30.728 30.728 80.601 30.728 111.33 0l11.487-11.487c7.658-7.658 17.805-11.87 28.622-11.87s20.964 4.212 28.622 11.87l11.487 11.487c14.838 14.838 34.653 23.070 55.713 23.070s40.78-8.233 55.713-23.070l11.487-11.487c7.658-7.658 17.805-11.87 28.622-11.87s20.964 4.212 28.622 11.87l53.607 53.607 27.091-27.091-53.607-53.607c-14.838-14.838-34.653-23.070-55.713-23.070zM150.679 830.904h-38.291c0 42.216-34.366 76.58-76.58 76.58v38.291c39.917 0 75.145-20.486 95.726-51.405 20.58 30.92 55.808 51.405 95.726 51.405v-38.291c-42.216 0-76.58-34.366-76.58-76.58zM342.131 735.179h-38.291c0 42.216-34.366 76.58-76.58 76.58v38.291c39.917 0 75.145-20.486 95.726-51.405 20.58 31.016 55.808 51.405 95.726 51.405v-38.291c-42.216 0-76.58-34.366-76.58-76.58z" />
<glyph unicode="&#xe908;" glyph-name="sailboat" d="M720.618 809.834h-37.993c0 41.887-34.099 75.986-75.986 75.986v37.993c39.607 0 74.561-20.326 94.982-51.005 20.421 30.774 55.374 51.005 94.982 51.005v-37.993c-41.887 0-75.986-34.099-75.986-75.986zM910.582 619.87h-37.993c0 41.887-34.099 75.986-75.986 75.986v37.993c39.607 0 74.561-20.326 94.982-51.005 20.421 30.774 55.374 51.005 94.982 51.005v-37.993c-41.887 0-75.986-34.099-75.986-75.986zM891.586-64c-20.896 0-40.462 8.168-55.279 22.891l-11.398 11.398c-15.672 15.672-41.127 15.672-56.704 0l-11.398-11.398c-30.489-30.489-79.975-30.489-110.464 0l-11.398 11.398c-15.672 15.672-41.127 15.672-56.704 0l-11.398-11.398c-30.489-30.489-79.975-30.489-110.464 0l-11.398 11.398c-15.672 15.672-41.127 15.672-56.704 0l-11.398-11.398c-30.489-30.489-79.975-30.489-110.464 0l-11.398 11.398c-15.672 15.672-41.127 15.672-56.704 0l-11.398-11.398c-14.722-14.722-34.383-22.891-55.279-22.891s-40.462 8.168-55.279 22.891l-53 53.19 26.88 26.88 53.19-53.19c7.599-7.599 17.667-11.778 28.4-11.778s20.801 4.179 28.4 11.778l11.398 11.398c14.722 14.722 34.383 22.891 55.279 22.891s40.462-8.168 55.279-22.891l11.398-11.398c7.599-7.599 17.667-11.778 28.4-11.778s20.801 4.179 28.4 11.778l11.398 11.398c30.489 30.489 79.975 30.489 110.464 0l11.398-11.398c15.672-15.672 41.127-15.672 56.704 0l11.398 11.398c30.489 30.489 79.975 30.489 110.464 0l11.398-11.398c7.599-7.599 17.667-11.778 28.4-11.778s20.801 4.179 28.4 11.778l11.398 11.398c14.722 14.722 34.383 22.891 55.279 22.891s40.462-8.168 55.279-22.891l11.398-11.398c7.599-7.599 17.667-11.778 28.4-11.778s20.801 4.179 28.4 11.778l53.19 53.19 26.88-26.88-53.19-53.19c-14.722-14.722-34.383-22.891-55.279-22.891zM836.401-21.638l-22.796 30.394c47.871 35.998 88.618 81.494 121.482 135.634h-780.371c11.113-49.866 31.914-94.032 61.928-131.55l-29.634-23.745c-38.563 48.156-63.448 105.715-74.086 171.252l-3.609 22.036h889.886l-14.817-27.925c-37.898-71.426-87.668-130.695-147.982-176.096zM397.68 904.816h37.993v-741.429h-37.993v741.429zM730.781 239.372h-529.429l211.81 720.628 317.62-720.628zM252.072 277.365h420.39l-252.177 572.266-168.213-572.171z" />
<glyph unicode="&#xe909;" glyph-name="arrow-down-left" d="M0.427 906.501l152.464-0.070-0.312-710.048 763.601 763.601 107.801-107.801-763.601-763.601 710.014 0.348 0.070-152.464-970.451-0.451z" />
<glyph unicode="&#xe90a;" glyph-name="arrow-down-right" d="M1023.561 906.494l-152.462-0.070 0.312-710.037-763.589 763.589-107.8-107.8 763.589-763.589-710.003 0.348-0.070-152.462 970.436-0.451z" />
<glyph unicode="&#xe90b;" glyph-name="arrow-down" d="M1023.979 448.439l-80.506 80.43-374.595-374.912v806.022h-113.793v-806.022l-374.559 374.912-80.506-80.43 511.961-512.42z" />
<glyph unicode="&#xe90c;" glyph-name="arrow-left" d="M512.459-63.979l80.397 80.506-374.925 374.595h806.050v113.757h-806.050l374.925 374.595-80.397 80.506-512.438-511.999z" />
<glyph unicode="&#xe90d;" glyph-name="arrow-right" d="M511.561 959.986l-80.431-80.507 374.917-374.6h-806.033v-113.795h806.033l-374.917-374.564 80.431-80.507 512.427 511.968z" />
<glyph unicode="&#xe90e;" glyph-name="arrow-up-left" d="M0.482-10.518l152.429 0.105-0.312 710.075 763.604-763.631 107.767 107.771-763.604 763.631 710.051-0.312 0.105 152.434-970.49 0.417z" />
<glyph unicode="&#xe90f;" glyph-name="arrow-up-right" d="M1023.518-10.518l-152.429 0.105 0.312 710.075-763.604-763.631-107.767 107.771 763.604 763.631-710.051-0.312-0.105 152.434 970.49 0.417z" />
<glyph unicode="&#xe910;" glyph-name="arrow-up" d="M0.014 447.541l80.507-80.398 374.6 374.93v-806.061h113.759v806.061l374.6-374.93 80.507 80.398-512.006 512.445z" />
<glyph unicode="&#xe911;" glyph-name="attach" d="M755.787 704.012v-409.613c0-141.157-109.384-255.984-243.812-255.984s-243.78 114.827-243.78 255.984v409.613c0 84.701 65.612 153.597 146.275 153.597s146.275-68.896 146.275-153.597v-409.613c0-28.212-21.871-51.209-48.768-51.209s-48.768 22.999-48.768 51.209v409.613h-97.505v-409.613c0-84.701 65.612-153.597 146.275-153.597 80.695 0 146.275 68.896 146.275 153.597v409.613c0 141.157-109.352 255.984-243.78 255.984s-243.812-114.827-243.812-255.984v-409.613c0-197.613 153.125-358.403 341.317-358.403s341.349 160.789 341.349 358.403v409.613h-97.537z" />
<glyph unicode="&#xe912;" glyph-name="back" d="M36.607 956.814h219.409c20.126 0 36.576-14.346 36.576-31.807v-386.878l680.946 419.421c4.289 1.558 8.955 2.419 13.857 2.419 20.267 0 36.576-14.223 36.576-31.807v-960.327c0-17.543-16.309-31.807-36.576-31.807-4.903 0-9.569 0.902-13.857 2.46l-680.946 419.38v-386.878c0-17.461-16.449-31.807-36.576-31.807h-219.409c-20.078 0-36.576 14.346-36.576 31.807v954.015c0 17.461 16.497 31.807 36.576 31.807z" />
<glyph unicode="&#xe913;" glyph-name="turbine" d="M685.141-64h-346.388l51.594 361.157 38.991-5.514-45.194-316.258h255.606l-45.095 316.258 38.991 5.514 51.495-361.157zM433.178 446.031l-39.286 1.969c0 7.877 0.788 15.852 2.363 23.631l38.892-5.809-1.969-19.791zM458.778 506.092l-24.517 30.818c6.105 5.317 12.209 9.748 18.412 13.292l21.366-33.083-15.262-11.028zM474.138 336.148c-7.582 2.56-14.572 5.711-20.874 9.452l18.018 34.954 17.329-7.778-14.375-36.628zM549.953 336.148l-14.375 36.628 17.329 7.778 18.018-34.954c-6.302-3.742-13.391-6.892-20.874-9.452zM565.313 506.092l-15.262 11.028 21.366 33.083c6.302-3.643 12.308-7.975 18.412-13.292l-24.517-30.72zM590.913 446.031l-1.969 19.791 38.892 5.809c1.575-7.778 2.363-15.754 2.363-23.631l-39.286-1.969zM434.852 463.951l-38.892 6.006 3.446 33.871 45.588 456.172h134.105l49.034-490.142-38.892-6.006c-3.348 16.443-12.111 31.606-24.714 42.732l-13.883 10.043c-22.646 12.898-53.662 13.292-77.292 0l-13.785-9.945c-12.603-11.126-21.366-26.289-24.714-42.732zM512.046 566.154c20.775 0 41.157-5.514 59.077-15.852l1.969-1.28 8.074-5.809-37.711 377.403h-62.818l-37.711-377.403 10.043 7.089c17.92 10.338 38.4 15.852 59.077 15.852zM102.15 133.908l-67.052 116.185 400.64 288 24.418-30.818c-12.603-11.028-21.563-25.994-25.108-42.24l-1.772-17.822c0.295-27.471 15.163-53.071 38.991-67.052l15.36-6.892c16.148-5.218 33.575-5.12 49.723 0.295l14.375-36.628-449.575-203.028zM86.987 238.868l31.409-54.449 345.698 155.963-11.717 5.514c-35.938 20.775-58.585 59.963-58.585 102.006v1.969s1.083 10.338 1.083 10.338l-307.889-221.342zM921.843 133.908l-449.575 202.929 14.375 36.628c16.148-5.415 33.575-5.514 49.723-0.295l15.36 6.892c23.828 13.982 38.695 39.582 38.991 67.052l-1.772 17.822c-3.545 16.345-12.505 31.212-25.108 42.24l24.418 30.818 400.64-288-67.052-116.086zM559.898 340.48l345.698-155.963 31.409 54.449-307.988 221.342 1.083-12.308c0-42.043-22.646-81.231-59.077-102.302l-2.068-1.083-9.157-4.135z" />
<glyph unicode="&#xe914;" glyph-name="bell" d="M925.836 255.076l-72.563 98.061v177.849c0 145.512-91.776 274.856-225.152 324.46v3.242c0 56.041-44.804 101.302-100.278 101.302h-32.009c-55.474 0-100.278-45.262-100.278-101.302v-3.242c-133.372-49.599-225.152-178.948-225.152-324.46v-177.849l-72.563-98.103c-21.34-29.093-25.591-67.915-8.544-101.302 16.005-32.336 49.098-52.798 85.358-52.798h166.469c4.251-91.618 78.939-164.925 170.716-164.925s166.469 73.304 170.716 164.925h166.469c36.26 0 69.353 20.463 85.358 52.798 17.047 33.431 13.838 72.209-8.544 101.344v0zM439.285 784.184c15.179 4.445 26.034 18.955 26.034 35.686v30.109c0 17.866 14.12 31.242 30.401 31.242h32.563c17.385 0 30.401-14.511 30.401-31.242v-30.109c0-16.733 10.855-31.242 26.034-35.686 119.399-33.464 202.967-146.151 202.967-273.295v-141.657h-551.375v141.657c0 127.189 83.571 239.831 202.967 273.295h0.006zM531.164 14.777c-52.101 0-93.781 34.414-97.932 78.768h196.92c-5.21-44.388-46.89-78.768-98.991-78.768h0.004zM863.974 186.845c-2.073-4.451-8.334-14.532-21.872-14.532h-659.783c-13.538 0-19.757 10.037-21.872 14.532-2.073 4.451-6.261 15.622 2.073 27.929l78.053 111.715c1.057 1.135 1.057 2.226 2.073 3.36h539.093c1.057-1.135 1.057-2.226 2.073-3.36l78.053-111.715c7.318-12.263 4.187-23.435 2.114-27.929h-0.006z" />
<glyph unicode="&#xe915;" glyph-name="bin" d="M860.413 703.962v-753.756c0-14.089-11.196-14.188-24.892-14.188v0h-647.091c-13.665 0-24.892 0.099-24.892 14.188v0 753.756h696.877zM462.22 550.406h-49.786v-409.592h49.786v409.592zM611.546 550.406h-49.786v-409.592h49.786v409.592zM621.854 959.982l99.541-102.415h163.922c13.698 0 24.892-22.931 24.892-37.020v0-65.362h-796.416v65.362c0 14.089 11.196 37.020 24.892 37.020v0h163.89l99.541 102.415h219.739zM601.226 908.775h-178.486l-49.786-51.208h278.058l-49.786 51.208z" />
<glyph unicode="&#xe916;" glyph-name="calendar" d="M729.602 903.094c25.752-0.247 46.722-19.263 48.873-43.344l0.18-4.572-0.765-71.488 146.999-0.035c54.727 0 99.094-42.484 99.094-94.89v-600.971c0-52.406-44.365-94.89-99.094-94.89h-825.778c-54.727 0-99.094 42.484-99.094 94.89v600.971c0 52.406 44.365 94.89 99.094 94.89l150.299 0.035 0.752 72.428c0.271 26.202 22.673 47.232 50.036 46.974 25.752-0.247 46.722-19.263 48.873-43.344l0.18-4.572-0.744-71.488h330.286l0.775 72.428c0.271 26.202 22.673 47.232 50.036 46.974zM924.886 426.497h-825.827l0.053-338.702h825.778l-0.004 338.702zM248.386 688.802l-149.275-0.037-0.053-167.381h825.827l0.004 167.381-147.967 0.037-0.676-66.311c-0.271-26.202-22.673-47.232-50.036-46.974-25.752 0.247-46.722 19.263-48.873 43.344l-0.18 4.572 0.668 65.371h-330.342l-0.641-66.311c-0.271-26.202-22.673-47.232-50.036-46.974-25.752 0.247-46.722 19.263-48.873 43.344l-0.18 4.572 0.632 65.371z" />
<glyph unicode="&#xe917;" glyph-name="camera" d="M665.592 852.191l102.416-101.036h51.208v25.235c0 13.904 11.516 25.267 25.571 25.267v0h51.208c14.056 0 25.604-11.364 25.604-25.267v0-25.235h76.779c14.089 0 25.604-11.397 25.604-25.267v0-656.821c0-13.904-11.516-25.267-25.604-25.267v0h-972.757c-14.089 0-25.604 11.364-25.604 25.267v0 656.821c0 13.872 11.516 25.267 25.604 25.267v0h230.404l102.383 101.036h307.183zM512 650.117c-141.416 0-255.975-113.084-255.975-252.641s114.559-252.641 255.975-252.641c141.416 0 256.007 113.084 256.007 252.641s-114.592 252.641-256.007 252.641zM512 549.051c84.83 0 153.592-67.824 153.592-151.572 0-83.714-68.762-151.604-153.592-151.604s-153.592 67.89-153.592 151.604c0 83.746 68.762 151.572 153.592 151.572z" />
<glyph unicode="&#xe918;" glyph-name="chevron-down" d="M512.003 345.606l409.583 409.583 102.396-102.396-511.979-511.979-511.979 511.979 102.396 102.396z" />
<glyph unicode="&#xe919;" glyph-name="chevron-left" d="M409.607 448l409.583-409.583-102.396-102.396-511.979 511.979 511.979 511.979 102.396-102.396z" />
<glyph unicode="&#xe91a;" glyph-name="chevron-right" d="M614.399 448l-409.583-409.583 102.396-102.396 511.979 511.979-511.979 511.979-102.396-102.396z" />
<glyph unicode="&#xe91b;" glyph-name="chevron-up" d="M512.003 550.396l409.583-409.583 102.396 102.396-511.979 511.979-511.979-511.979 102.396-102.396z" />
<glyph unicode="&#xe91c;" glyph-name="clock" d="M512 959.986c282.335 0 511.986-229.68 511.986-512.006s-229.652-511.968-511.986-511.968c-282.335 0-511.986 229.644-511.986 511.968s229.652 512.006 511.986 512.006zM512 846.192c-219.533 0-398.225-178.611-398.225-398.21 0-219.525 178.692-398.21 398.225-398.21 219.569 0 398.225 178.684 398.225 398.21 0 219.599-178.654 398.21-398.225 398.21zM568.892 732.418v-227.553h113.799v-113.759h-227.598v341.312h113.799z" />
<glyph unicode="&#xe91d;" glyph-name="cloud" d="M844.696 496.315c0 0.581 0.099 1.129 0.099 1.709 0 165.574-137.787 300.284-307.184 300.284-133.597 0-247.198-83.915-289.432-200.534-137.49-3.902-248.156-114.36-248.156-249.876 0-137.968 115.021-250.199 256.371-250.199h562.795c112.909 0 204.8 89.785 204.8 200.146 0 101.944-78.362 186.118-179.294 198.47z" />
<glyph unicode="&#xe91e;" glyph-name="cog" d="M512.015 305.777c-78.564 0-142.208 63.754-142.208 142.208 0 78.564 63.644 142.245 142.208 142.245 78.454 0 142.208-63.68 142.208-142.245 0-78.454-63.754-142.208-142.208-142.208v0zM1023.984 362.674v170.657l-126.81 14.078c-9.385 36.514-23.793 70.976-42.49 102.686l79.664 99.571-120.687 120.687-99.534-79.664c-31.748 18.734-66.173 33.068-102.723 42.527l-14.041 126.773h-170.694l-14.078-126.773c-36.588-9.459-71.011-23.793-102.686-42.527l-99.607 79.664-120.724-120.687 79.737-99.571c-18.734-31.675-33.068-66.173-42.527-102.686l-126.773-14.078v-170.657l126.773-14.078c9.459-36.588 23.793-71.011 42.527-102.686l-79.737-99.607 120.724-120.687 99.607 79.701c31.675-18.734 66.1-33.105 102.686-42.49l14.078-126.81h170.694l14.041 126.81c36.551 9.385 70.976 23.757 102.651 42.49l99.607-79.701 120.687 120.687-79.664 99.607c18.77 31.675 33.105 66.1 42.49 102.686l126.81 14.078z" />
<glyph unicode="&#xe91f;" glyph-name="comment" d="M682.672 391.106c-31.418 0-56.897 25.478-56.897 56.894s25.48 56.894 56.897 56.894c31.418 0 56.897-25.478 56.897-56.894s-25.48-56.894-56.897-56.894zM512.018 391.106c-31.418 0-56.897 25.478-56.897 56.894s25.48 56.894 56.897 56.894c31.418 0 56.86-25.478 56.86-56.894s-25.442-56.894-56.86-56.894zM341.328 391.106c-31.382 0-56.86 25.478-56.86 56.894s25.48 56.894 56.86 56.894c31.418 0 56.897-25.478 56.897-56.894s-25.48-56.894-56.897-56.894zM512.018 959.979c-282.797 0-511.999-229.229-511.999-511.979 0-141.393 57.301-269.37 149.94-362.044l-149.94-149.936h511.999c282.797 0 511.961 229.193 511.961 511.979 0 282.751-229.164 511.979-511.961 511.979z" />
<glyph unicode="&#xe920;" glyph-name="crop" d="M284.478 220.468v455.102h455.118v-455.102h-455.118zM853.357 220.468v483.514c0 47.071-38.312 85.345-85.348 85.345h-483.53v170.654h-113.798v-170.654h-170.66v-113.757h170.66v-483.55c0-47.071 38.276-85.345 85.348-85.345h483.53v-170.654h113.798v170.654h170.623v113.793h-170.623z" />
<glyph unicode="&#xe921;" glyph-name="document" d="M810.651 71.392c0-18.148-14.435-32.996-32.079-32.996h-533.176c-17.643 0-32.079 14.848-32.079 32.996v753.235c0 18.115 14.435 32.996 32.079 32.996h284.28c17.675 0 32.079-14.881 32.079-32.996v-190.024c0-18.148 14.435-32.996 32.079-32.996h184.74c17.643 0 32.079-14.848 32.079-32.996v-497.217zM634.219 936.681c-12.479 12.836-28.261 23.328-35.125 23.328h-428.344c-17.643 0-37.692-2.573-44.525-5.775-6.865-3.168-12.447-34.679-12.447-52.827v-906.797c0-18.148 2.503-38.771 5.613-45.799 3.048-7.061 33.715-12.803 51.357-12.803h682.501c17.611 0 37.66 2.607 44.493 5.741 6.865 3.168 12.479 34.712 12.479 52.86v625.209c0 18.148-10.233 43.489-22.712 56.324l-253.292 260.537z" />
<glyph unicode="&#xe922;" glyph-name="drawer" d="M810.679 857.584v-665.575h-193.697c0-51.208-47.285-102.384-102.271-102.384-54.952 0-102.271 51.175-102.271 102.384h-199.119v665.575h597.357zM910.223 934.396c0 14.121-11.132 25.604-24.893 25.604h-746.656c-13.763 0-24.893-11.483-24.893-25.604v-972.792c0-14.121 11.132-25.604 24.893-25.604h746.656c13.763 0 24.893 11.483 24.893 25.604v972.792z" />
<glyph unicode="&#xe923;" glyph-name="dribble" d="M756.211 85.395c-4.351 26.367-27.774 154.679-84.987 312.303 141.113 22.527 263.346-16.127 272.369-19.135-19.391-121.786-89.148-226.932-187.382-293.169zM512 10.774c-105.914 0-202.869 37.63-278.513 100.154 5.76-4.608 9.727-7.615 9.727-7.615s83.9 182.839 343.151 273.137c0.96 0.384 1.855 0.64 2.88 0.895 61.501-159.863 86.971-293.68 93.372-331.951-52.413-22.335-110.138-34.623-170.615-34.623zM74.774 448.064c0 4.608 0.192 9.216 0.319 13.759 7.807-0.127 223.796-5.056 448.873 62.269 12.479-24.447 24.51-49.406 35.518-74.3-5.887-1.6-11.519-3.328-17.279-5.184-235.956-76.22-355.565-288.561-355.565-288.561s0.127-0.127 0.127-0.192c-69.628 77.436-111.995 179.83-111.995 292.209zM325.386 843.435c5.824-7.807 86.715-117.433 162.359-251.955-209.91-55.742-392.108-53.565-403.627-53.373 28.35 135.417 119.353 247.732 241.267 305.329zM800.688 776.111c-1.087-1.663-63.357-96.443-228.341-158.327-74.749 137.337-156.856 246.451-163.383 255.090 33.022 8.064 67.516 12.352 103.034 12.352 110.586 0 211.7-41.213 288.688-109.115zM949.097 452.351c-6.4 1.408-154.36 33.214-304.624 14.335-3.007 7.488-6.144 14.975-9.408 22.59-9.088 21.438-18.88 42.622-29.118 63.421 172.791 70.396 242.867 171.767 243.635 173.047 61.372-74.492 98.363-169.655 99.515-273.394zM1013.478 551.034c-6.655 32.895-16.768 65.341-29.886 96.251-12.736 30.399-28.671 59.644-47.165 86.971-18.367 27.135-39.358 52.605-62.461 75.709-23.103 23.231-48.638 44.222-75.772 62.524-27.327 18.496-56.637 34.366-86.971 47.23-30.91 12.991-63.229 23.103-96.251 29.823-33.598 6.912-68.348 10.432-102.971 10.432-34.75 0-69.373-3.52-103.163-10.432-32.83-6.72-65.212-16.831-96.251-29.823-30.207-12.863-59.581-28.734-86.971-47.23-27.006-18.304-52.478-39.293-75.772-62.524-23.103-23.103-44.093-48.573-62.332-75.709-18.496-27.327-34.366-56.573-47.294-86.971-13.12-30.91-23.103-63.357-29.823-96.251-6.912-33.598-10.367-68.348-10.367-102.971 0-34.75 3.456-69.5 10.367-103.163 6.72-32.895 16.703-65.277 29.823-96.187 12.928-30.334 28.799-59.709 47.294-87.036 18.239-27.071 39.23-52.541 62.332-75.709 23.295-23.166 48.765-44.158 75.772-62.461 27.39-18.496 56.765-34.366 86.971-47.165 31.038-13.12 63.421-23.103 96.251-29.886 33.79-6.912 68.413-10.432 103.163-10.432 34.623 0 69.373 3.52 102.971 10.432 33.022 6.784 65.341 16.768 96.251 29.886 30.334 12.799 59.644 28.671 86.971 47.165 27.135 18.304 52.67 39.293 75.772 62.461s44.093 48.638 62.461 75.709c18.496 27.327 34.431 56.702 47.165 87.036 13.12 30.91 23.231 63.292 29.886 96.187 6.976 33.663 10.495 68.413 10.495 103.163 0 34.623-3.52 69.373-10.495 102.971z" />
<glyph unicode="&#xe924;" glyph-name="education" d="M537.608 852.2l486.378-303.14-486.378-303.14-435.204 271.231v-303.531c15.277-8.758 25.604-24.843 25.604-43.501 0-17.647-9.205-33.147-23.13-42.167v0l48.733-84.137h-153.592l48.733 84.137c-13.924 9.020-23.162 24.518-23.162 42.167 0 18.657 10.361 34.743 25.604 43.501v0 335.44l486.411 303.14zM204.824 393.605l332.787-207.443 332.787 207.411v-142.323l-332.787-207.443-332.787 207.443v142.355z" />
<glyph unicode="&#xe925;" glyph-name="email" d="M1023.979 579.735v-428.863c0-12.579-11.548-22.861-25.604-22.861v0h-972.785c-14.056 0-25.571 10.281-25.571 22.861v0 428.863l511.979-228.572 511.979 228.572zM998.375 767.987c14.056 0 25.604-10.311 25.604-22.861v0-63.19l-511.979-228.543-511.979 228.543v63.19c0 12.55 11.515 22.861 25.571 22.861v0z" />
<glyph unicode="&#xe926;" glyph-name="eye-Closed" d="M138.626 903.093l819.149-836.256-72.389-73.935-178.796 182.53c-62.392-26.576-127.49-41.027-194.568-41.027-193.776 0-371.647 117.555-512.005 313.592 66.583 92.933 141.644 167.878 222.744 221.367v0l-156.525 159.793 72.389 73.935zM335.767 553.998c-18.015-31.056-28.54-67.232-28.54-106.002 0-115.467 91.658-209.073 204.796-209.073 37.944 0 73.313 10.813 103.767 29.238v0l-77.636 79.257c-8.381-2.324-17.058-3.975-26.131-3.975-56.553 0-102.414 46.921-102.414 104.552 0 9.297 1.584 18.189 3.795 26.744v0zM512.009 761.588c193.776 0 371.68-117.555 511.973-313.592-48.997-68.444-102.646-127.053-159.857-174.715v0l-148.639 151.743c0.825 7.545 1.32 15.225 1.32 22.973 0 115.467-91.691 209.073-204.796 209.073-7.589 0-15.111-0.505-22.502-1.348v0l-90.305 92.225c36.855 8.858 74.501 13.642 112.808 13.642z" />
<glyph unicode="&#xe927;" glyph-name="eye" d="M511.984 760.884c193.78 0 371.689-117.285 512.016-312.872-140.328-195.587-318.237-312.905-512.016-312.905-193.747 0-371.623 117.319-511.984 312.905 140.361 195.587 318.237 312.872 511.984 312.872zM511.984 656.605c-113.107 0-204.8-93.391-204.8-208.592s91.693-208.592 204.8-208.592c113.107 0 204.8 93.391 204.8 208.592s-91.693 208.592-204.8 208.592zM511.984 552.312c56.488 0 102.416-46.712 102.416-104.313 0-57.5-45.929-104.28-102.416-104.28-56.553 0-102.384 46.78-102.384 104.28 0 57.601 45.831 104.313 102.384 104.313z" />
<glyph unicode="&#xe928;" glyph-name="facebook" d="M749.939 628.411h-162.108v106.301c0 39.87 26.495 49.215 45.119 49.215h114.302v175.483l-157.5 0.576c-174.78 0-214.523-130.876-214.523-214.586v-116.989h-101.181v-180.732h101.181v-511.667h212.603v511.667h143.485l18.624 180.732z" />
<glyph unicode="&#xe929;" glyph-name="filters" d="M398.237 277.334c74.308 0 137.325-47.512 160.714-113.795v0h436.575c15.617 0 28.448-12.794 28.448-28.412v0-56.897c0-15.655-12.83-28.449-28.448-28.449v0h-436.575c-23.388-66.246-86.406-113.757-160.714-113.757-74.345 0-137.325 47.512-160.787 113.757v0h-208.957c-15.653 0-28.448 12.794-28.448 28.449v0 56.897c0 15.617 12.794 28.412 28.448 28.412v0h208.957c23.462 66.282 86.442 113.795 160.787 113.795zM398.237 191.989c-47.144 0-85.343-38.2-85.343-85.308 0-47.146 38.199-85.346 85.343-85.346 47.107 0 85.343 38.2 85.343 85.346 0 47.108-38.236 85.308-85.343 85.308zM739.535 618.625c74.345 0 137.325-47.476 160.751-113.757v0h95.241c15.617 0 28.448-12.794 28.448-28.412v0-56.897c0-15.655-12.83-28.449-28.448-28.449v0h-95.241c-23.426-66.246-86.406-113.795-160.751-113.795-74.308 0-137.325 47.549-160.751 113.795v0h-550.291c-15.653 0-28.448 12.794-28.448 28.449v0 56.897c0 15.617 12.794 28.412 28.448 28.412v0h550.291c23.426 66.282 86.442 113.757 160.751 113.757zM739.535 533.316c-47.144 0-85.343-38.2-85.343-85.308 0-47.146 38.199-85.346 85.343-85.346 47.107 0 85.343 38.2 85.343 85.346 0 47.108-38.236 85.308-85.343 85.308zM284.465 959.973c74.308 0 137.325-47.512 160.751-113.795v0h550.291c15.653 0 28.448-12.794 28.448-28.412v0-56.897c0-15.655-12.794-28.449-28.448-28.449v0h-550.291c-23.426-66.282-86.442-113.795-160.751-113.795-74.345 0-137.325 47.512-160.751 113.795v0h-95.241c-15.617 0-28.448 12.794-28.448 28.449v0 56.897c0 15.617 12.83 28.412 28.448 28.412v0h95.241c23.426 66.282 86.406 113.795 160.751 113.795zM284.465 874.627c-47.144 0-85.343-38.2-85.343-85.308 0-47.146 38.199-85.346 85.343-85.346 47.107 0 85.343 38.2 85.343 85.346 0 47.108-38.236 85.308-85.343 85.308z" />
<glyph unicode="&#xe92a;" glyph-name="ferry" d="M827.167-64h-630.154v116.185l-101.809 508.849 416.788 104.172 416.788-104.172-101.711-508.849v-116.185zM236.398-24.615h551.385l0.394 82.609 94.818 473.895-370.905 92.751-370.905-92.751 95.212-475.766v-80.738zM827.167 571.077h-39.385v152.615h-551.385v-152.615h-39.385v192h630.154v-192zM728.706 743.385h-39.385v177.231h-354.462v-177.231h-39.385v216.615h433.231v-216.615zM380.742 861.538h98.462v-39.385h-98.462v39.385zM544.878 861.538h98.462v-39.385h-98.462v39.385zM728.706 182.154h-433.231v111.163c0 41.846 34.068 75.914 75.914 75.914h281.403c41.846 0 75.914-34.068 75.914-75.914v-111.163zM334.859 221.538h354.462v71.778c0 20.086-16.345 36.529-36.529 36.529h-281.502c-20.185 0-36.529-16.345-36.529-36.529v-71.778zM401.715 285.932c0-11.637-9.434-21.071-21.071-21.071s-21.071 9.434-21.071 21.071c0 11.637 9.434 21.071 21.071 21.071s21.071-9.434 21.071-21.071zM671.106 285.932c0-11.637-9.434-21.071-21.071-21.071s-21.071 9.434-21.071 21.071c0 11.637 9.434 21.071 21.071 21.071s21.071-9.434 21.071-21.071zM386.552 93.538h-45.785c-24.025 0-43.52 19.495-43.52 43.52v19.692h39.385v-19.692c0-2.265 1.871-4.135 4.135-4.135h45.785c2.265 0 4.135 1.871 4.135 4.135v19.692h39.385v-19.692c0-24.025-19.495-43.52-43.52-43.52zM685.087 93.538h-45.785c-24.025 0-43.52 19.495-43.52 43.52v19.692h39.385v-19.692c0-2.265 1.871-4.135 4.135-4.135h45.785c2.265 0 4.135 1.871 4.135 4.135v19.692h39.385v-19.692c0-24.025-19.495-43.52-43.52-43.52zM728.706 388.923h-85.662l-8.566 51.2-33.772 27.569h-177.329l-33.772-27.569-8.566-51.2h-85.563v39.385h52.185l5.514 32.985 56.222 45.785h205.292l56.222-45.785 5.514-32.985h52.283v-39.385z" />
<glyph unicode="&#xe92b;" glyph-name="anchor" d="M512.005 723.692c-65.182 0-118.154 52.972-118.154 118.154s52.972 118.154 118.154 118.154 118.154-52.972 118.154-118.154-52.972-118.154-118.154-118.154zM512.005 920.615c-43.422 0-78.769-35.348-78.769-78.769s35.348-78.769 78.769-78.769 78.769 35.348 78.769 78.769-35.348 78.769-78.769 78.769zM492.313 743.385h39.385v-787.692h-39.385v787.692zM315.082 566.154h393.846v-39.385h-393.846v39.385zM512.005-64c-228.037 0-413.538 185.502-413.538 413.538v47.557l132.037-132.037-27.865-27.865-61.342 61.342c24.911-182.252 181.662-323.151 370.708-323.151s345.698 140.898 370.708 323.151l-61.342-61.342-27.865 27.865 132.037 132.037v-47.557c0-228.037-185.502-413.538-413.538-413.538z" />
<glyph unicode="&#xe92c;" glyph-name="flickr" d="M227.147 675.054c125.369 0 227.124-101.69 227.124-227.060s-101.755-227.060-227.124-227.060c-125.434 0-227.124 101.69-227.124 227.060s101.69 227.060 227.124 227.060zM796.87 675.054c125.434 0 227.124-101.69 227.124-227.060s-101.69-227.060-227.124-227.060c-125.369 0-227.060 101.69-227.060 227.060s101.69 227.060 227.060 227.060z" />
<glyph unicode="&#xe92d;" glyph-name="folder" d="M0.018 74.684c0-13.665 11.548-24.892 25.603-24.892h972.758c14.056 0 25.603 11.228 25.603 24.892v597.313c0 13.665-11.548 24.86-25.603 24.86h-537.569l-153.587 149.352h-281.602c-14.056 0-25.603-11.196-25.603-24.892v-746.633z" />
<glyph unicode="&#xe92e;" glyph-name="forward" d="M924.014 956.835h-190.16c-17.443 0-31.7-14.345-31.7-31.807v-386.89l-590.171 419.435c-3.717 1.558-7.761 2.418-12.011 2.418-17.524 0-31.7-14.224-31.7-31.807v-960.357c0-17.544 14.176-31.807 31.7-31.807 4.248 0 8.293 0.902 12.011 2.459l590.171 419.393v-386.89c0-17.46 14.257-31.807 31.7-31.807h190.16c17.403 0 31.7 14.345 31.7 31.807v954.046c0 17.46-14.297 31.807-31.7 31.807z" />
<glyph unicode="&#xe92f;" glyph-name="storage" d="M924.936-63.991h-825.872v688.226h-98.318v131.255l511.254 204.501 511.254-204.501v-131.255h-98.318v-688.226zM138.392-24.664h747.217v688.226h98.318v65.382l-471.927 188.673-471.927-188.771v-65.382h98.318v-688.128zM826.619-63.991h-629.235v727.553h629.235v-727.553zM236.71-24.664h550.58v648.899h-550.58v-648.899zM629.982-63.991h-235.963v235.963h235.963v-235.963zM433.346-24.664h157.309v157.309h-157.309v-157.309zM629.982 132.644h-235.963v235.963h235.963v-235.963zM433.346 171.972h157.309v157.309h-157.309v-157.309zM433.346 132.644h-235.963v235.963h235.963v-235.963zM236.71 171.972h157.309v157.309h-157.309v-157.309zM433.346 329.281h-235.963v235.963h235.963v-235.963zM236.71 368.608h157.309v157.309h-157.309v-157.309zM433.346-63.991h-235.963v235.963h235.963v-235.963zM236.71-24.664h157.309v157.309h-157.309v-157.309zM826.619-63.991h-235.963v235.963h235.963v-235.963zM629.982-24.664h157.309v157.309h-157.309v-157.309z" />
<glyph unicode="&#xe930;" glyph-name="gauge" d="M512.008 852.193c136.764 0 265.345-52.586 362.053-148.055 96.708-95.436 149.929-222.392 149.929-357.423 0-110.838-36.393-215.912-102.713-302.915v0l-73.182 72.188c47.612 67.238 73.513 146.948 73.513 230.728 0 108.005-42.596 209.564-119.97 285.952-77.341 76.355-180.186 118.425-289.63 118.425-109.378 0-212.289-42.069-289.63-118.425-77.341-76.388-119.937-177.947-119.937-285.952 0-83.78 25.869-163.489 73.446-230.76v0l-73.117-72.156c-66.353 86.971-102.747 192.078-102.747 302.915 0 135.031 53.254 261.987 149.962 357.423 96.675 95.469 225.257 148.055 362.021 148.055zM652.824 461.28c0 0-53.122-242.32-74.304-278.56s-68.168-48.646-104.89-27.709c-36.724 20.905-49.294 67.271-28.112 103.511 21.215 36.24 207.308 202.758 207.308 202.758zM204.835 397.461c28.276 0 51.175-22.63 51.175-50.535 0-27.872-22.899-50.535-51.175-50.535s-51.208 22.663-51.208 50.535c0 27.905 22.932 50.535 51.208 50.535zM819.231 397.47c28.243 0 51.175-22.63 51.175-50.535 0-27.872-22.932-50.535-51.175-50.535-28.31 0-51.208 22.663-51.208 50.535 0 27.905 22.899 50.535 51.208 50.535zM258.58 597.011c19.995 19.732 52.429 19.732 72.425 0 19.995-19.7 19.962-51.707 0-71.439-19.995-19.732-52.429-19.732-72.425 0-19.962 19.732-19.962 51.74 0 71.439zM693.056 597.025c19.995 19.732 52.397 19.732 72.39 0 19.962-19.7 19.995-51.707 0-71.439s-52.429-19.732-72.39 0c-19.995 19.732-19.995 51.707 0 71.439zM512.012 700.614c28.243 0 51.208-22.63 51.208-50.535s-22.965-50.502-51.208-50.502c-28.276 0-51.208 22.597-51.208 50.502s22.932 50.535 51.208 50.535z" />
<glyph unicode="&#xe931;" glyph-name="grid-2x2" d="M418.458 391.119c20.164 0 36.66-16.496 36.66-36.66v0-381.78c0-20.164-16.496-36.66-36.66-36.66v0h-381.779c-20.164 0-36.66 16.496-36.66 36.66v0 381.78c0 20.164 16.496 36.66 36.66 36.66v0zM987.319 391.119c20.164 0 36.66-16.496 36.66-36.66v0-381.78c0-20.164-16.496-36.66-36.66-36.66v0h-381.779c-20.164 0-36.66 16.496-36.66 36.66v0 381.78c0 20.164 16.496 36.66 36.66 36.66v0zM418.458 959.979c20.164 0 36.66-16.496 36.66-36.66v0-381.78c0-20.164-16.496-36.66-36.66-36.66v0h-381.779c-20.164 0-36.66 16.496-36.66 36.66v0 381.78c0 20.164 16.496 36.66 36.66 36.66v0zM987.319 959.979c20.164 0 36.66-16.496 36.66-36.66v0-381.78c0-20.164-16.496-36.66-36.66-36.66v0h-381.779c-20.164 0-36.66 16.496-36.66 36.66v0 381.78c0 20.164 16.496 36.66 36.66 36.66v0z" />
<glyph unicode="&#xe932;" glyph-name="grid-3x3" d="M199.109 163.558c15.618 0 28.449-12.795 28.449-28.449v0-170.659c0-15.654-12.831-28.449-28.449-28.449v0h-170.659c-15.654 0-28.449 12.795-28.449 28.449v0 170.659c0 15.654 12.795 28.449 28.449 28.449v0zM995.55 163.558c15.618 0 28.449-12.795 28.449-28.449v0-170.659c0-15.654-12.831-28.449-28.449-28.449v0h-170.66c-15.654 0-28.449 12.795-28.449 28.449v0 170.659c0 15.654 12.795 28.449 28.449 28.449v0zM597.323 163.558c15.654 0 28.449-12.795 28.449-28.449v0-170.659c0-15.654-12.795-28.449-28.449-28.449v0h-170.659c-15.618 0-28.449 12.795-28.449 28.449v0 170.659c0 15.654 12.831 28.449 28.449 28.449v0zM199.109 561.768c15.618 0 28.449-12.795 28.449-28.449v0-170.66c0-15.618-12.831-28.449-28.449-28.449v0h-170.659c-15.654 0-28.449 12.831-28.449 28.449v0 170.66c0 15.654 12.795 28.449 28.449 28.449v0zM995.55 561.768c15.618 0 28.449-12.795 28.449-28.449v0-170.66c0-15.618-12.831-28.449-28.449-28.449v0h-170.66c-15.654 0-28.449 12.831-28.449 28.449v0 170.66c0 15.654 12.795 28.449 28.449 28.449v0zM597.323 561.768c15.654 0 28.449-12.795 28.449-28.449v0-170.66c0-15.618-12.795-28.449-28.449-28.449v0h-170.659c-15.618 0-28.449 12.831-28.449 28.449v0 170.66c0 15.654 12.831 28.449 28.449 28.449v0zM199.109 959.997c15.618 0 28.449-12.795 28.449-28.449v0-170.66c0-15.654-12.831-28.449-28.449-28.449v0h-170.659c-15.654 0-28.449 12.795-28.449 28.449v0 170.66c0 15.654 12.795 28.449 28.449 28.449v0zM995.543 959.999c15.654 0 28.449-12.831 28.449-28.449v0-170.659c0-15.654-12.795-28.449-28.449-28.449v0h-170.659c-15.654 0-28.449 12.795-28.449 28.449v0 170.659c0 15.618 12.795 28.449 28.449 28.449v0zM597.323 959.997c15.654 0 28.449-12.795 28.449-28.449v0-170.66c0-15.654-12.795-28.449-28.449-28.449v0h-170.659c-15.618 0-28.449 12.795-28.449 28.449v0 170.66c0 15.654 12.831 28.449 28.449 28.449v0z" />
<glyph unicode="&#xe933;" glyph-name="headphones" d="M227.585 277.358c62.58 0 113.759-51.215 113.759-113.795v0-113.757c0-62.58-51.179-113.795-113.759-113.795v0h-28.448c-15.618 0-28.448 12.831-28.448 28.448v0 284.448c0 15.618 12.831 28.448 28.448 28.448v0zM824.886 277.358c15.654 0 28.448-12.831 28.448-28.448v-284.448c0-15.618-12.795-28.448-28.448-28.448h-28.448c-62.58 0-113.759 51.215-113.759 113.795v113.757c0 62.58 51.179 113.795 113.759 113.795h28.448zM512.018 959.986c282.288 0 511.968-229.677 511.968-511.962v0-483.551c0-15.654-12.795-28.448-28.448-28.448v0h-56.861c-15.654 0-28.448 12.795-28.448 28.448v0 483.551c0 219.56-178.648 398.169-398.21 398.169-219.599 0-398.21-178.609-398.21-398.169v0-483.551c0-15.654-12.795-28.448-28.448-28.448v0h-56.898c-15.618 0-28.448 12.795-28.448 28.448v0 483.551c0 282.285 229.68 511.962 512.006 511.962z" />
<glyph unicode="&#xe934;" glyph-name="heart" d="M940.688 419.068c111.082 109.062 111.082 286.082 0 395.181-111.010 109.026-291.2 108.99-402.209-0.072-9.789-9.564-18.404-19.885-26.433-30.459-8.066 10.611-16.718 20.896-26.507 30.533-111.010 109.026-291.199 108.99-402.208-0.072-111.12-109.135-111.083-286.046-0.036-395.073l426.699-419.107 430.695 419.072z" />
<glyph unicode="&#xe935;" glyph-name="history" d="M511.982 959.979c141.179 0 269.197-57.412 361.874-150.129 92.714-92.681 150.125-220.74 150.125-361.85 0-282.331-229.641-511.979-511.999-511.979-139.090 0-267.914 56.678-361.691 150.276v0l80.359 80.362c72.954-72.773 173.147-116.877 281.332-116.877 219.596 0 398.242 178.652 398.242 398.219 0 109.802-44.689 209.338-116.8 281.452-72.111 72.077-171.644 116.767-281.441 116.767-121.492 0-234.003-55.36-308.46-146.61v0l137.843-137.848h-341.345v341.321l122.592-122.56c95.72 112.038 237.12 179.459 389.37 179.459zM511.993 732.447v-227.559h113.793v-113.798h-227.55v341.357h113.757z" />
<glyph unicode="&#xe936;" glyph-name="home-narrow" d="M512 959.97l-511.97-511.97h127.972v-511.97h255.984v192.019c0 70.688 57.326 127.972 128.014 127.972s128.014-57.285 128.014-127.972v-192.019h255.943v511.97h128.014l-511.97 511.97z" />
<glyph unicode="&#xe937;" glyph-name="home-wide" d="M921.584 448v149.325h-153.592l-256.008 248.897-511.984-497.793h102.384v-298.651h307.216v248.897h204.767v-248.897h307.216v298.651h102.416z" />
<glyph unicode="&#xe938;" glyph-name="image" d="M947.176 846.223c42.367 0 76.815-33.489 76.815-74.679v0-647.087c0-41.189-34.448-74.679-76.815-74.679v0h-870.403c-42.333 0-76.781 33.489-76.781 74.679v0 647.087c0 41.189 34.448 74.679 76.781 74.679v0zM921.571 746.651h-819.193v-597.301l237.901 231.285c9.932 9.656 26.265 9.656 36.197 0v0l84.305-81.96 460.791 447.976zM297.216 632.875c44.791 0 81.083-35.779 81.083-79.979s-36.292-80.013-81.083-80.013c-44.791 0-81.083 35.813-81.083 80.013s36.292 79.979 81.083 79.979z" />
<glyph unicode="&#xe939;" glyph-name="instagram" d="M572.122 959.972c85.777-0.191 105.448-0.938 150.943-3.018 54.529-2.496 91.714-11.136 124.292-23.809 33.665-13.121 62.21-30.593 90.691-59.073s45.954-56.961 59.073-90.691c12.672-32.576 21.313-69.762 23.809-124.292 0.521-11.373 0.957-21.134 1.322-30.715l0.405-11.505c0.87-27.076 1.22-57.264 1.316-122.096v-93.502c-0.090-60.183-0.398-90.524-1.137-116.24l-0.374-11.633c-0.405-11.487-0.909-22.816-1.533-36.464-2.496-54.529-11.136-91.778-23.809-124.292-13.121-33.728-30.593-62.21-59.073-90.691s-57.025-46.017-90.691-59.073c-32.576-12.672-69.762-21.313-124.292-23.809-47.769-2.184-67.068-2.898-164.317-3.042h-93.521c-60.203 0.090-90.535 0.398-116.255 1.137l-11.634 0.374c-11.492 0.405-22.828 0.909-36.491 1.533-54.465 2.496-91.714 11.136-124.227 23.809-33.665 13.056-62.274 30.593-90.691 59.073-28.481 28.481-46.017 56.961-59.073 90.691-12.672 32.513-21.313 69.762-23.809 124.292-2.081 45.495-2.826 65.211-3.018 150.965v120.246c0.191 85.777 0.938 105.448 3.018 150.943 2.496 54.529 11.136 91.714 23.809 124.292 13.056 33.728 30.593 62.21 59.073 90.691 28.417 28.481 57.025 45.954 90.691 59.073 32.513 12.672 69.762 21.313 124.227 23.809 45.547 2.081 65.228 2.826 151.007 3.018zM543.745 867.787h-63.516c-73.575-0.066-105.229-0.398-133.619-1.31l-11.273-0.396c-9.402-0.357-19.014-0.783-30.268-1.29-49.921-2.304-76.994-10.625-95.042-17.664-23.936-9.281-40.962-20.353-58.881-38.273s-29.057-34.945-38.336-58.881c-6.977-18.048-15.296-45.121-17.6-95.042-0.416-9.003-0.777-16.955-1.089-24.59l-0.624-16.95c-0.915-28.39-1.223-60.044-1.283-133.619v-63.516c0.060-73.575 0.368-105.229 1.283-133.619l0.399-11.273c0.362-9.402 0.795-19.014 1.316-30.268 2.304-49.921 10.625-77.059 17.6-95.042 9.281-23.936 20.417-40.962 38.336-58.881s34.945-28.993 58.881-38.273c18.048-7.040 45.121-15.36 95.042-17.664 47.265-2.129 65.571-2.835 160.992-2.979h91.85c95.42 0.144 113.727 0.851 160.992 2.979 49.857 2.304 76.994 10.625 95.042 17.664 23.936 9.281 40.962 20.353 58.881 38.273s28.993 34.945 38.336 58.881c6.977 17.984 15.296 45.121 17.6 95.042 2.027 45.015 2.72 63.762 2.895 147.874v118.088c-0.176 84.112-0.869 102.859-2.895 147.874-2.304 49.921-10.625 76.994-17.6 95.042-9.344 23.936-20.417 40.962-38.336 58.881s-34.945 28.993-58.881 38.273c-18.048 7.040-45.186 15.36-95.042 17.664-11.253 0.507-20.866 0.933-30.268 1.29l-11.273 0.396c-28.39 0.912-60.044 1.244-133.619 1.31zM511.974 710.894c145.22 0 262.919-117.635 262.919-262.855 0-145.283-117.699-262.919-262.919-262.919s-262.919 117.635-262.919 262.919c0 145.22 117.699 262.855 262.919 262.855zM511.974 618.667c-94.274 0-170.692-76.418-170.692-170.628 0-94.274 76.418-170.692 170.692-170.692s170.692 76.418 170.692 170.692c0 94.21-76.418 170.628-170.692 170.628zM785.294 782.767c33.92 0 61.442-27.521 61.442-61.442s-27.521-61.442-61.442-61.442c-33.92 0-61.442 27.521-61.442 61.442s27.521 61.442 61.442 61.442z" />
<glyph unicode="&#xe93a;" glyph-name="coffee" d="M578.634 32.607c-6.343 0-14.345 0.098-24.981 0.293-26.738 0.39-71.528 1.074-150.67 0.781-35.228-0.098-56.599-0.39-70.163-0.488-20.688-0.195-24.298-0.293-30.738 0.781-16.102 2.635-159.256 39.326-211.367 504.996l-2.44 21.566h726.707l-2.44-21.664c-50.938-458.253-194.387-501.483-210.488-504.898l-0.976-0.195c-6.148-0.976-12.1-1.269-22.445-1.269zM440.456 72.714c56.599 0 91.436-0.488 113.685-0.878 24.005-0.39 33.471-0.488 40.009 0.39 5.855 1.952 128.225 47.133 177.115 449.276h-639.272c50.646-416.098 175.651-448.983 176.919-449.276 2.342-0.39 4.879-0.39 23.421-0.195 13.564 0.195 35.033 0.39 70.456 0.488 13.564 0 26.055 0 37.667 0zM110.134-24.967h683.086v-39.033h-683.086v39.033zM237.189 616.061c-4.879 0-9.759 1.854-13.564 5.464-7.709 7.514-7.904 19.907-0.39 27.616 16.394 16.979 16.394 44.498 0 61.478l-11.71 12.1c-30.934 31.91-30.934 83.825 0 115.832l11.71 12.1c16.394 16.979 16.394 44.498 0 61.478l-11.71 12.003c-7.514 7.709-7.319 20.102 0.39 27.616s20.102 7.319 27.616-0.39l11.71-12.003c30.934-31.91 30.934-83.922 0-115.832l-11.71-12.1c-16.394-16.979-16.394-44.498 0-61.478l11.71-12.1c30.934-31.91 30.934-83.922 0-115.832-3.805-4.001-8.88-5.952-14.052-5.952zM627.523 618.696c-4.879 0-9.759 1.854-13.564 5.464-7.709 7.514-7.904 19.907-0.39 27.616 16.394 16.979 16.394 44.498 0 61.478l-11.71 12.1c-30.934 31.91-30.934 83.922 0 115.832l11.71 12.003c16.394 16.979 16.394 44.498 0 61.478l-11.71 12.1c-7.514 7.709-7.319 20.102 0.39 27.616s20.102 7.319 27.616-0.39l11.71-12.1c30.934-31.91 30.934-83.825 0-115.832l-11.71-12.1c-16.394-16.979-16.394-44.498 0-61.478l11.71-12.1c30.934-31.91 30.934-83.825 0-115.832-3.805-4.001-8.88-5.952-14.052-5.952zM439.968 618.696c-4.879 0-9.759 1.854-13.564 5.464-7.709 7.514-7.904 19.907-0.39 27.616 16.394 16.979 16.394 44.498 0 61.478l-11.71 12.1c-30.934 31.91-30.934 83.825 0 115.832l11.71 12.1c16.394 16.979 16.394 44.498 0 61.478l-11.71 12.1c-7.514 7.709-7.319 20.102 0.39 27.616s20.102 7.319 27.616-0.39l11.71-12.1c30.934-31.91 30.934-83.825 0-115.832l-11.71-12.1c-16.394-16.979-16.394-44.498 0-61.478l11.71-12.1c30.934-31.91 30.934-83.825 0-115.832-3.805-4.001-8.88-5.952-14.052-5.952zM746.868 131.167c-18.15 0-37.18 2.928-56.892 8.783l11.124 37.472c31.617-9.368 60.307-9.466 85.385-0.39 62.259 22.64 96.218 98.266 106.464 156.036 8.392 47.426 2.44 88.997-14.735 103.439-13.076 11.027-40.302 9.759-78.652-3.513l-12.783 36.887c53.476 18.638 91.631 17.467 116.515-3.513 28.787-24.2 39.228-76.604 28.007-140.13-12.003-68.016-53.671-157.598-131.543-185.898-16.687-6.050-34.447-9.173-52.988-9.173z" />
<glyph unicode="&#xe93b;" glyph-name="link-away" d="M1023.979 561.779l-455.102 398.204v-232.903c-568.859-136.633-568.859-791.057-568.859-791.057s198.003 460.014 568.859 460.014v-232.464l455.102 398.204z" />
<glyph unicode="&#xe93c;" glyph-name="link" d="M309.152 570.203l81.155-81.183-263.725-263.9 162.272-162.402 263.688 263.9 81.155-81.183-283.986-284.214c-16.23-16.245-37.823-25.199-60.858-25.199-22.997 0-44.626 8.954-60.858 25.199v0l-202.832 202.994c-16.23 16.245-25.141 37.89-25.141 60.906s8.911 44.662 25.141 60.906v0l283.986 284.176zM643.554 661.266l81.118-81.183-344.252-344.527-81.118 81.22 344.252 344.49zM674.263 935.618c32.462 32.488 89.251 32.488 121.714 0v0l202.832-202.994c16.23-16.245 25.178-37.854 25.178-60.906s-8.947-44.662-25.178-60.906v0l-284.022-284.176-81.080 81.183 263.688 263.9-162.272 162.402-263.688-263.937-81.118 81.22z" />
<glyph unicode="&#xe93d;" glyph-name="linkedin" d="M232.486 618.906v-660.297h-219.586v660.297h219.586zM771.245 634.421c144.386 0 252.74-94.338 252.74-297.22v0-378.564h-219.459v353.285c0 88.705-31.808 149.378-111.297 149.378-60.545 0-96.705-41.024-112.641-80.385-5.76-14.144-7.232-33.665-7.232-53.504v0-368.772h-219.459l0.029 6.218c0.006 1.355 0.014 2.921 0.021 4.691l0.057 12.981c0.21 48.365 0.681 163.474 0.95 283.049l0.077 37.836 0.060 37.698c0.009 6.248 0.017 12.471 0.023 18.66l-0.014 122.028c-0.119 68.681-0.471 121.041-1.203 137.132v0h219.459v-93.505c29.249 45.056 81.409 108.993 197.89 108.993zM124.112 937.393c75.137 0 121.346-49.345 122.754-114.177 0-63.296-47.617-114.114-124.161-114.114v0h-1.472c-73.601 0-121.218 50.816-121.218 114.114 0 64.832 49.088 114.177 124.098 114.177z" />
<glyph unicode="&#xe93e;" glyph-name="lock" d="M362.655 550.398v153.588c0 84.697 66.981 153.588 149.327 153.588s149.361-68.892 149.361-153.588v-153.588h-298.688zM511.984 217.617c-41.222 0-74.648 34.381-74.648 76.778 0 42.431 33.426 76.81 74.648 76.81 41.254 0 74.68-34.381 74.68-76.81 0-42.398-33.426-76.778-74.68-76.778v0zM885.319 550.398h-124.434v153.588c0 141.149-111.667 256.002-248.901 256.002s-248.901-114.853-248.901-256.002v-153.588h-124.402c-13.698 0-24.893-11.548-24.893-25.603v-179.192c0-226.208 178.263-409.591 398.197-409.591s398.229 183.382 398.229 409.591v179.192c0 14.056-11.196 25.603-24.893 25.603v0z" />
<glyph unicode="&#xe93f;" glyph-name="microphone-mute" d="M150.856 893.804l792.302-819.196-70.014-72.427-153.974 159.207c-45.315-35.141-99.086-58.964-157.643-67.708v0-55.301l99.021-102.387h-297.097l99.021 102.387v55.301c-167.696 24.978-297.097 174.121-297.097 354.313v0h99.053c0-141.158 111.053-256.017 247.57-256.017 50.389 0 97.203 15.772 136.326 42.632v0l-72.536 75c-19.371-9.635-40.943-15.211-63.791-15.211-81.693 0-148.549 69.128-148.549 153.597v0 81.203l-282.609 292.181 70.014 72.427zM858.631 447.996c0-52.035-11.010-101.365-30.38-146.008v0l-77.322 79.95c5.457 21.117 8.648 43.192 8.648 66.058v0zM512.004 959.991c81.693 0 148.549-69.093 148.549-153.597v0-330.985l-297.097 307.195v23.79c0 84.503 66.855 153.597 148.549 153.597z" />
<glyph unicode="&#xe940;" glyph-name="microphone-on" d="M255.993 448.005c0-141.153 114.853-256.008 256.003-256.008s256.003 114.856 256.003 256.008v0h102.382c0-180.186-133.792-329.323-307.178-354.301v0-55.3l102.382-102.383h-307.178l102.382 102.383v55.3c-173.352 24.977-307.178 174.115-307.178 354.301v0zM512.002 959.979c84.466 0 153.589-69.092 153.589-153.591v0-358.391c0-84.467-69.123-153.591-153.589-153.591s-153.589 69.124-153.589 153.591v0 358.391c0 84.5 69.123 153.591 153.589 153.591z" />
<glyph unicode="&#xe941;" glyph-name="more-horizontal" d="M256.010 448c0-70.389-57.574-127.994-128.015-127.994-70.4 0-127.975 57.605-127.975 127.994s57.574 127.994 127.975 127.994c70.442 0 128.015-57.605 128.015-127.994zM639.994 448c0-70.389-57.574-127.994-128.015-127.994-70.4 0-127.975 57.605-127.975 127.994s57.574 127.994 127.975 127.994c70.442 0 128.015-57.605 128.015-127.994zM1023.979 448c0-70.389-57.574-127.994-128.015-127.994-70.4 0-127.975 57.605-127.975 127.994s57.574 127.994 127.975 127.994c70.442 0 128.015-57.605 128.015-127.994z" />
<glyph unicode="&#xe942;" glyph-name="more-vertical" horiz-adv-x="1008" d="M504.002 277.337c46.928 0 85.333-38.384 85.333-85.347 0-46.935-38.405-85.32-85.333-85.32s-85.333 38.384-85.333 85.32c0 46.963 38.405 85.347 85.333 85.347zM504.002 533.337c46.928 0 85.333-38.384 85.333-85.347 0-46.935-38.405-85.32-85.333-85.32s-85.333 38.384-85.333 85.32c0 46.963 38.405 85.347 85.333 85.347zM504.002 789.337c46.928 0 85.333-38.384 85.333-85.347 0-46.935-38.405-85.32-85.333-85.32s-85.333 38.384-85.333 85.32c0 46.963 38.405 85.347 85.333 85.347z" />
<glyph unicode="&#xe943;" glyph-name="houses" d="M629.22 33.693h-625.149v613.72l312.574 312.574 312.574-312.574v-613.72zM43.143 72.765h547.005v558.433l-273.502 273.502-273.502-273.502v-558.433zM759.427 53.228h-39.072v577.969l-287.276 287.373 27.643 27.643 298.703-298.801v-594.184zM889.73 53.228h-39.072v577.969l-287.373 287.373 27.643 27.643 298.801-298.801v-594.184zM1019.937 53.228h-39.072v577.969l-287.276 287.373 27.545 27.643 298.801-298.801v-594.184zM629.22 53.228h-39.072v577.969l-287.276 287.373 27.545 27.643 298.801-298.801v-594.184zM4.071-24.915h1015.866v-39.072h-1015.866v39.072zM433.861 33.693h-234.431v429.79h234.431v-429.79zM238.502 72.765h156.287v351.646h-156.287v-351.646z" />
<glyph unicode="&#xe944;" glyph-name="pause" d="M307.822 959.97c18.405 0 33.528-14.435 33.528-32.004v-959.933c0-17.569-15.123-32.004-33.528-32.004h-201.125c-18.45 0-33.528 14.435-33.528 32.004v959.933c0 17.569 15.080 32.004 33.528 32.004h201.125zM917.303 959.97c18.45 0 33.528-14.435 33.528-32.004v-959.933c0-17.569-15.080-32.004-33.528-32.004h-201.125c-18.405 0-33.528 14.435-33.528 32.004v959.933c0 17.569 15.123 32.004 33.528 32.004h201.125z" />
<glyph unicode="&#xe945;" glyph-name="flame" d="M512.027-63.986c-99.242 0-198.092 43.466-264.611 116.238-59.486 65.152-88.008 147.104-80.487 230.717 32.82 361.020 319.116 651.027 331.229 663.238l13.871 13.773 13.773-13.773c12.21-12.21 298.408-302.218 331.229-663.238 7.619-83.613-21.001-165.565-80.487-230.619-66.422-72.77-165.37-116.238-264.611-116.238zM512.027 903.911c-57.826-63.101-278.677-322.046-306.124-624.556v0c-6.642-72.575 18.363-143.881 70.427-200.827 59.193-64.761 147.299-103.539 235.699-103.539s176.505 38.681 235.699 103.539c51.965 56.947 76.97 128.252 70.427 200.827-27.448 302.413-248.299 561.359-306.124 624.459zM512.027-63.986c-71.11 0-141.927 31.16-189.496 83.32-42.784 46.788-63.296 105.786-57.826 165.956v0c23.15 254.843 224.954 459.285 233.55 467.881l13.773 13.773 13.773-13.773c8.596-8.596 210.4-213.037 233.55-467.881 5.47-60.17-15.042-119.070-57.826-165.956-47.667-52.16-118.484-83.32-189.496-83.32zM512.027 610.679c-45.713-50.793-189.984-225.93-208.446-429.004v0c-4.493-49.132 12.503-97.484 47.764-136.066 40.342-44.15 100.414-70.524 160.681-70.524s120.34 26.373 160.681 70.524c35.262 38.583 52.258 86.934 47.764 136.066-18.461 203.074-162.732 378.114-208.446 429.004zM512.027-63.986c-42.881 0-85.762 18.852-114.479 50.304-26.080 28.522-38.583 64.468-35.165 101.195 13.48 148.569 130.889 267.542 135.871 272.524l13.773 13.773 13.773-13.773c4.982-4.982 122.391-123.954 135.871-272.524 3.321-36.727-9.182-72.672-35.165-101.195-28.815-31.453-71.599-50.304-114.479-50.304zM512.027 317.254c-30.378-35.262-101.195-127.666-110.767-233.257v0c-2.344-25.689 6.545-50.988 25.103-71.306 21.489-23.54 53.528-37.607 85.664-37.607s64.175 14.066 85.664 37.607c18.559 20.317 27.448 45.615 25.103 71.306-9.573 105.493-80.389 197.897-110.767 233.257z" />
<glyph unicode="&#xe946;" glyph-name="phone" d="M958.023 278.284c-6.342 1.503-12.904 2.457-19.686 2.457-0.294 0-0.55-0.073-0.88-0.073-96.892 12.17-187.516 44.506-267.471 92.823l-123.948-126.697c-91.614 61.771-171.018 144.33-232.791 229.638v0l124.131 126.733c-48.354 79.955-80.579 172.008-92.787 268.9 0 0.33 0.147 1.282 0.147 1.576 0 6.783-0.99 13.711-2.493 20.052-8.908 37.723-42.599 66.282-83.108 66.282h-173.511c-46.558 0-84.318-37.246-85.418-83.585 0-0.66-0.183-1.356-0.183-2.053 0-4.986 0.622-9.788 1.429-14.518 17.89-186.562 85.308-357.874 188.725-501.287 64.521-89.413 143.084-167.903 232.497-232.35 143.561-103.49 314.909-170.762 500.92-188.689 4.803-0.843 9.715-1.467 14.737-1.467 0.696 0 1.393 0.183 2.127 0.22 46.301 1.137 83.511 38.822 83.511 85.382v173.511c0 40.472-28.191 74.236-65.952 83.145z" />
<glyph unicode="&#xe947;" glyph-name="pin" d="M511.986 422.411c-74.634 0-135.092 57.31-135.092 127.982s60.46 128.015 135.092 128.015c74.634 0 135.092-57.343 135.092-128.015s-60.46-127.982-135.092-127.982zM817.695 835.557c-168.84 165.892-442.577 165.892-611.382 0-168.874-165.892-168.874-434.922 0-600.781l305.673-298.758 305.709 298.758c168.84 165.859 168.84 434.89 0 600.781z" />
<glyph unicode="&#xe948;" glyph-name="pinterest" d="M535.992 959.999c-279.487 0-420.352-200.32-420.352-367.423 0-101.184 38.208-191.167 120.384-224.705 13.44-5.503 25.601-0.192 29.44 14.72 2.752 10.304 9.152 36.353 12.032 47.232 3.904 14.719 2.431 19.904-8.448 32.768-23.68 27.967-38.784 64.063-38.784 115.327 0 148.673 111.168 281.728 289.536 281.728 157.952 0 244.736-96.511 244.736-225.408 0-169.601-75.072-312.768-186.496-312.768-61.567 0-107.52 50.944-92.801 113.345 17.664 74.496 51.905 154.879 51.905 208.704 0 48.127-25.793 88.32-79.296 88.32-62.911 0-113.472-65.088-113.472-152.256 0-55.552 18.816-93.055 18.816-93.055s-64.385-272.767-75.713-320.513c-22.464-95.168-3.392-211.776-1.728-223.552 0.895-6.976 9.92-8.64 14.016-3.329 5.696 7.552 80.64 100.032 106.176 192.448 7.168 26.177 41.344 161.728 41.344 161.728 20.48-39.041 80.191-73.344 143.68-73.344 189.056 0 317.376 172.351 317.376 403.072 0 174.464-147.776 336.96-372.352 336.96z" />
<glyph unicode="&#xe949;" glyph-name="play" d="M868.635 470.255l-3.358 2.419-675.675 484.877c-3.682 1.558-7.647 2.419-11.895 2.419-17.315 0-31.395-14.223-31.395-31.807v-960.327c0-17.584 14.079-31.807 31.395-31.807 4.248 0 8.213 0.902 11.895 2.419l679.033 487.296c5.542 5.737 9.063 13.566 9.063 22.255s-3.519 16.518-9.063 22.255z" />
<glyph unicode="&#xe94a;" glyph-name="plus" d="M1023.979 504.878h-455.102v455.102h-113.757v-455.102h-455.102v-113.793h455.102v-455.064h113.757v455.064h455.102z" />
<glyph unicode="&#xe94b;" glyph-name="printer" d="M796.44 163.556v-227.559h-568.881v227.559h568.881zM767.991 959.995c15.654 0 28.449-12.795 28.449-28.449v0-312.871h199.11c15.654 0 28.449-12.795 28.449-28.449v0-511.981c0-15.654-12.795-28.449-28.449-28.449v0h-142.211v142.21c0 15.618-12.831 28.413-28.449 28.413v0h-625.78c-15.618 0-28.449-12.795-28.449-28.413v0-142.21h-142.211c-15.654 0-28.449 12.795-28.449 28.449v0 511.982c0 15.654 12.795 28.449 28.449 28.449v0h199.11v312.872c0 15.654 12.795 28.449 28.449 28.449v0zM910.202 504.914h-113.798v-56.899h113.798v56.899zM739.541 903.097h-455.12v-284.423h455.12v284.423z" />
<glyph unicode="&#xe94c;" glyph-name="refresh" d="M341.329 334.227l-137.807-137.843c74.495-91.211 186.932-146.604 308.461-146.604 109.799 0 209.332 44.689 281.443 116.8 46.156 46.119 80.836 103.565 100.010 167.648v0h117.351c-21.776-95.5-69.948-181.101-136.927-248.080-92.678-92.75-220.695-150.125-361.876-150.125-152.252 0-293.651 67.455-389.407 179.415v0l-122.556-122.518v341.307h341.309zM511.981 959.983c152.288 0 293.687-67.455 389.445-179.453v0l122.556 122.556v-341.307h-341.309l137.807 137.843c-74.495 91.211-186.932 146.604-308.497 146.604-109.761 0-209.294-44.689-281.405-116.8-46.558-46.522-81.423-102.978-100.45-167.648v0h-117.021c21.703 95.794 69.948 180.992 137.036 248.080 92.678 92.714 220.695 150.125 361.838 150.125z" />
<glyph unicode="&#xe94d;" glyph-name="repeat" d="M1024.003 511.986c0-247.015-178.654-448.002-398.223-448.002v0h-284.424v-127.983l-170.662 191.995 170.662 191.995v-127.983h284.424c156.84 0 284.46 143.532 284.46 319.978v0zM682.687 959.999l170.663-191.995-170.663-192.036v128.023h-284.46c-156.84 0-284.424-143.532-284.424-319.979v0h-113.799c0 247.016 178.654 448.002 398.223 448.002v0h284.46v127.983z" />
<glyph unicode="&#xe94e;" glyph-name="return" d="M691.197 732.44h-486.383v170.66l-204.802-227.523 204.802-227.56v170.66h486.383c127.065 0 230.407-114.824 230.407-256.009s-103.342-256.009-230.407-256.009h-486.383v-113.761h486.383c183.52 0 332.791 165.895 332.791 369.77 0 203.913-149.271 369.77-332.791 369.77z" />
<glyph unicode="&#xe94f;" glyph-name="download" d="M815.991 629.76l-246.4-244.48v574.72h-115.2v-574.72l-246.4 244.48-80-79.36 384-381.44 384 381.44-80 79.36zM196.471-64h630.4v113.92h-630.4v-113.92z" />
<glyph unicode="&#xe950;" glyph-name="rotate-clockwise" d="M1023.982 561.78h-341.309l137.806 137.843c-74.493 91.248-186.932 146.605-308.461 146.605-109.762 0-209.332-44.652-281.443-116.801-72.111-72.111-116.763-171.645-116.763-281.407 0-219.597 178.647-398.206 398.206-398.206 108.221 0 208.415 44.103 281.296 116.837l80.397-80.359c-93.779-93.521-222.603-150.271-361.693-150.271-282.359 0-512.001 229.678-512.001 512.001 0 141.143 57.447 269.161 150.126 361.838 92.715 92.715 220.697 150.126 361.876 150.126 152.251 0 293.651-67.455 389.408-179.454l122.556 122.592v-341.346z" />
<glyph unicode="&#xe951;" glyph-name="rotate-counter-clockwise" d="M0.014 561.777h341.312l-137.807 137.845c74.494 91.249 186.934 146.606 308.464 146.606 109.763 0 209.333-44.652 281.445-116.802 72.112-72.112 116.764-171.647 116.764-281.409 0-219.599-178.648-398.21-398.21-398.21-108.222 0-208.417 44.103-281.298 116.838l-80.398-80.36c93.779-93.521 222.605-150.272 361.696-150.272 282.362 0 512.006 229.68 512.006 512.006 0 141.145-57.447 269.163-150.127 361.842-92.716 92.716-220.698 150.127-361.879 150.127-152.252 0-293.653-67.456-389.411-179.455l-122.557 122.593v-341.349z" />
<glyph unicode="&#xe952;" glyph-name="quote" d="M240.93 324.838c0-67.981-120.318-123.162-120.318-123.162v-123.162c180.618 0 361.521 246.609 361.521 492.931-0.285 135.961-108.087 246.324-241.204 246.324s-240.92-110.362-240.92-246.609 107.802-246.609 240.92-246.609zM783.069 817.77c-133.117 0-240.92-110.362-240.92-246.609s107.802-246.609 240.92-246.609c0-67.981-120.602-123.162-120.602-123.162v-123.162c180.618 0 361.521 246.609 361.521 492.931 0 136.246-107.802 246.609-240.92 246.609z" />
<glyph unicode="&#xe953;" glyph-name="search" d="M113.814 504.878c0 188.214 153.093 341.307 341.307 341.307s341.345-153.093 341.345-341.307c0-188.214-153.131-341.345-341.345-341.345s-341.307 153.131-341.307 341.345v0zM1023.979 16.453l-209.807 209.807c59.977 77.059 96.050 173.623 96.050 278.619 0 250.94-204.162 455.102-455.102 455.102s-455.102-204.162-455.102-455.102c0-250.94 204.162-455.102 455.102-455.102 104.996 0 201.522 36.111 278.619 96.050l209.807-209.807 80.433 80.433z" />
<glyph unicode="&#xe954;" glyph-name="send" d="M1024 448l-1024 455.111 76.812-341.315 511.984-113.796-511.984-113.796-76.812-341.315z" />
<glyph unicode="&#xe955;" glyph-name="share" d="M791.995 21.323c-46.374 0-84.014 38.201-84.014 85.346 0 47.109 37.64 85.31 84.014 85.31s84.014-38.201 84.014-85.31c0-47.145-37.64-85.346-84.014-85.346zM232.005 362.672c-46.41 0-84.014 38.201-84.014 85.31s37.604 85.346 84.014 85.346c46.374 0 84.014-38.237 84.014-85.346s-37.64-85.31-84.014-85.31zM791.995 874.64c46.374 0 84.014-38.237 84.014-85.346s-37.64-85.31-84.014-85.31c-46.374 0-84.014 38.201-84.014 85.31s37.64 85.346 84.014 85.346zM791.995 277.325c-40.635 0-77.951-14.701-107.003-39.117l-288.349 175.752c2.202 10.998 3.357 22.4 3.357 34.021 0 11.658-1.155 23.023-3.357 34.021l288.349 175.752c29.051-24.416 66.367-39.117 107.003-39.117 92.785 0 167.993 76.401 167.993 170.657s-75.21 170.693-167.993 170.693c-92.785 0-167.993-76.438-167.993-170.693 0-11.622 1.155-23.023 3.357-34.021l-288.349-175.716c-29.051 24.416-66.367 39.080-107.003 39.080-92.785 0-167.993-76.401-167.993-170.657s75.21-170.657 167.993-170.657c40.635 0 77.951 14.701 107.003 39.117l288.349-175.752c-2.202-10.998-3.357-22.4-3.357-34.021 0-94.255 75.21-170.657 167.993-170.657s167.993 76.401 167.993 170.657c0 94.219-75.21 170.657-167.993 170.657z" />
<glyph unicode="&#xe956;" glyph-name="tides" d="M0.328 696.539v76.805c23.963 2.458 44.24 9.524 61.445 20.584s34.101 22.734 51.306 35.33c17.204 12.289 36.252 23.349 57.757 32.566 21.198 9.524 47.927 14.133 79.263 14.133s58.372-5.223 80.492-15.975 42.397-22.427 60.83-35.33 36.867-24.578 55.607-35.33 40.553-15.975 65.131-15.975 46.39 5.223 65.131 15.975 37.481 22.427 55.607 35.33 38.709 24.578 60.83 35.33 49.156 15.975 80.492 15.975 57.757-4.608 78.649-14.133c20.891-9.524 40.246-20.277 57.757-32.566s34.716-23.963 51.92-35.33c17.204-11.060 37.481-17.819 61.445-20.584v-76.805c-29.8 1.844-54.686 7.988-74.962 18.433s-38.709 22.12-56.222 34.409c-17.512 12.289-35.33 23.656-53.149 33.794s-39.631 15.361-65.131 15.361-47.927-5.223-67.282-15.975-38.096-22.427-56.222-35.33-38.403-24.578-60.216-35.33-47.927-15.975-78.649-15.975-56.836 5.223-78.649 15.975-41.782 22.427-60.216 35.33-37.174 24.578-56.222 35.33-41.475 15.975-67.282 15.975-47.619-5.223-66.053-15.361c-18.433-10.138-35.945-21.505-53.149-33.794s-35.638-23.963-55.607-34.409-45.161-16.897-74.962-18.433zM0.328 471.039v76.805c23.963 1.844 44.24 7.988 61.445 18.433 17.204 10.753 34.101 22.12 51.306 34.409s36.252 23.656 57.757 33.794c21.198 10.138 47.927 15.361 79.263 15.361s58.372-5.223 80.492-15.975 42.397-22.427 60.83-35.33c18.433-12.903 36.867-24.578 55.607-35.33s40.553-15.975 65.131-15.975 46.39 5.223 65.131 15.975 37.481 22.427 55.607 35.33c18.433 12.903 38.709 24.578 60.83 35.33s49.156 15.975 80.492 15.975 57.757-5.223 78.649-15.361c20.891-10.138 40.246-21.505 57.757-33.794s34.716-23.963 51.92-34.409c17.204-10.753 37.481-16.897 61.445-18.433v-76.805c-29.8 1.844-54.686 7.988-74.962 18.433s-38.709 22.12-56.222 34.409c-17.512 12.289-35.33 23.656-53.149 33.794s-39.631 15.361-65.131 15.361-47.927-5.223-67.282-15.975-38.096-22.427-56.222-35.33c-18.433-12.903-38.403-24.578-60.216-35.33s-47.927-15.975-78.649-15.975-56.836 5.223-78.649 15.975-41.782 22.427-60.216 35.33c-18.433 12.903-37.174 24.578-56.222 35.33s-41.475 15.975-67.282 15.975-47.619-5.223-66.053-15.361c-18.433-10.138-35.945-21.505-53.149-33.794s-35.638-23.963-55.607-34.409-45.161-16.897-74.962-18.433zM0.328 245.846v76.805c23.963 2.458 44.24 9.524 61.445 20.584s34.101 22.734 51.306 35.33 36.252 23.349 57.757 32.566c21.198 9.524 47.927 14.133 79.263 14.133s58.372-5.223 80.492-15.975 42.397-22.427 60.83-35.33c18.433-12.903 36.867-24.578 55.607-35.33s40.553-15.975 65.131-15.975 46.39 5.223 65.131 15.975 37.481 22.427 55.607 35.33c18.433 12.903 38.709 24.578 60.83 35.33s49.156 15.975 80.492 15.975 57.757-4.608 78.649-14.133c20.891-9.524 40.246-20.277 57.757-32.566s34.716-23.963 51.92-35.33c17.204-11.060 37.481-17.819 61.445-20.584v-76.805c-29.8 3.379-54.686 10.753-74.962 21.812s-38.709 22.734-56.222 34.409c-17.512 11.982-35.33 22.734-53.149 31.951-17.819 9.524-39.631 14.133-65.131 14.133s-47.927-5.223-66.667-15.975-37.481-22.427-56.222-35.33c-18.741-12.903-39.017-24.578-60.83-35.33s-47.927-15.975-78.649-15.975-56.836 5.223-78.649 15.975-41.782 22.427-60.216 35.33c-18.433 12.903-37.174 24.578-56.222 35.33s-41.475 15.975-67.282 15.975-47.619-5.223-66.053-15.361-35.945-21.505-53.149-33.794c-17.204-12.289-35.638-23.963-55.607-34.409s-45.161-16.897-74.962-18.433zM0.328 97.458c23.963 2.458 44.24 9.524 61.445 20.584s34.101 22.734 51.306 35.33c17.204 12.289 36.252 23.349 57.757 32.566 21.198 9.524 47.927 14.133 79.263 14.133s58.372-5.223 80.492-15.975 42.397-22.427 60.83-35.33 36.867-24.578 55.607-35.33 40.553-15.975 65.131-15.975 46.39 5.223 65.131 15.975 37.481 22.427 55.607 35.33 38.709 24.578 60.83 35.33 49.156 15.975 80.492 15.975 57.757-4.608 78.649-14.133c20.891-9.524 40.246-20.277 57.757-32.566s34.716-23.963 51.92-35.33c17.204-11.060 37.481-17.819 61.445-20.584v-76.805c-29.8 1.844-54.686 7.988-74.962 18.433s-38.709 22.12-56.222 34.409c-17.512 12.289-35.33 23.656-53.149 33.794s-39.631 15.361-65.131 15.361-47.927-5.223-67.282-15.975-38.096-22.427-56.222-35.33-38.403-24.578-60.216-35.33-47.927-15.975-78.649-15.975-56.836 5.223-78.649 15.975-41.782 22.427-60.216 35.33-37.174 24.578-56.222 35.33-41.475 15.975-67.282 15.975-47.619-5.223-66.053-15.361c-18.433-10.138-35.945-21.505-53.149-33.794s-35.638-23.963-55.607-34.409-45.161-16.897-74.962-18.433v76.805z" />
<glyph unicode="&#xe957;" glyph-name="shuffle" d="M588.083 370.92l51.838-78.49c23.609-35.835 84.649-68.421 128.056-68.421v0h85.347v112.016l170.656-168.023-170.656-167.987v111.98h-85.347c-82.486 0-178.576 51.352-223.448 119.413v0l-24.307 36.773 67.859 102.741zM853.339 895.979l170.62-167.987-170.62-168.023v112.016h-85.347c-43.407 0-104.447-32.586-128.093-68.421v0l-245.738-372.17c-44.946-68.061-140.997-119.377-223.485-119.377v0h-170.656v111.98h170.656c43.407 0 104.447 32.624 128.093 68.421v0l245.738 372.17c44.91 68.061 140.997 119.413 223.485 119.413v0h85.347v111.98zM170.684 783.981c82.414 0 178.538-51.316 223.485-119.377v0l24.269-36.809-67.823-102.741-51.838 78.526c-23.683 35.799-84.723 68.421-128.093 68.421v0h-170.656v111.98z" />
<glyph unicode="&#xe958;" glyph-name="warehousing" d="M157.552-64h238.953v227.802h230.96v-227.802h238.999v1024h-708.923l0.011-1024zM654.942 846.116h99.469v-131.94h-99.469v131.94zM654.942 626.197h99.469v-131.94h-99.469v131.94zM654.942 406.277h99.469v-131.94h-99.469v131.94zM462.835 846.116h99.469v-131.94h-99.469v131.94zM462.835 626.197h99.469v-131.94h-99.469v131.94zM462.835 406.277h99.469v-131.94h-99.469v131.94zM270.729 846.116h99.469v-131.94h-99.469v131.94zM270.729 626.197h99.469v-131.94h-99.469v131.94zM270.729 406.277h99.469v-131.94h-99.469v131.94z" />
<glyph unicode="&#xe959;" glyph-name="star" d="M512 959.986l142.213-398.21h369.775l-312.875-227.553 117.319-398.21-316.43 227.553-316.43-227.553 117.319 398.21-312.875 227.553h369.775z" />
<glyph unicode="&#xe95a;" glyph-name="stopwatch" d="M561.785 960.009l99.54-102.387h-99.54v-105.951c72.529-9.371 138.932-38.869 194.011-82.919v0l69.449 71.469 70.38-72.427-69.481-71.436c52.512-69.357 84.077-156.269 84.077-250.737 0-225.859-178.645-409.613-398.223-409.613s-398.223 183.755-398.223 409.613c0 208.469 152.308 380.708 348.436 406.049v0 105.951h-99.54l99.54 102.387h99.572zM512 652.816c-164.691 0-298.651-137.824-298.651-307.193 0-169.435 133.96-307.227 298.651-307.227s298.683 137.792 298.683 307.227c0 169.369-133.992 307.193-298.683 307.193zM561.764 550.406l0.017-116.091c29.753-17.713 49.775-50.809 49.775-88.707 0-56.555-44.589-102.42-99.572-102.42-54.951 0-99.54 45.864-99.54 102.42 0 37.873 19.996 70.951 49.708 88.673l0.039 116.124h99.572z" />
<glyph unicode="&#xe95b;" glyph-name="tick-circle" d="M952.134 448.055c0-12.205-0.468-24.411-1.449-36.617-0.468-5.518-0.935-11.037-1.449-16.508 0-0.935-1.449-11.738-0.234-3.601-0.468-4.302-1.216-8.605-1.917-12.907-3.834-23.475-9.584-46.437-17.018-68.977-3.366-10.522-7.433-21.090-11.501-31.379-2.384-5.752 3.366 7.67-0.701-1.684-1.216-2.853-2.618-5.752-3.834-8.605-2.618-5.752-5.517-11.504-8.135-17.023-10.519-20.576-22.486-40.218-35.671-59.156-1.917-2.619-3.6-5.051-5.517-7.67-0.468-0.701-6.685-9.119-1.917-2.619-3.132-4.069-6.452-8.137-9.818-12.205-7.901-9.587-16.27-18.893-25.152-27.778-7.2-7.436-14.82-14.591-22.486-21.558-4.535-4.069-9.35-8.371-14.119-12.205-1.683-1.45-3.132-2.619-4.769-4.069-0.935-0.935-11.501-8.839-5.049-4.069-18.42-13.89-37.587-26.562-57.922-37.598-10.051-5.518-20.57-10.756-30.855-15.573-2.151-0.935-15.802-6.687-8.836-4.069-5.984-2.385-11.735-4.77-17.719-6.921-23.234-8.371-46.938-15.105-71.107-19.875-5.283-0.935-10.753-1.917-16.035-2.853-3.132-0.468-6.452-0.935-9.818-1.45 1.449 0.234 6.919 0.701-0.234 0-13.184-1.45-26.32-2.619-39.738-3.133-24.404-0.935-48.807 0.468-73.257 3.133-10.753 1.216 7.2-1.216-3.366 0.468-2.151 0.234-4.301 0.701-6.452 0.935-6.452 0.935-12.903 2.151-19.169 3.601-11.501 2.385-23.234 5.051-34.455 8.371-11.267 3.133-22.486 6.687-33.52 10.756-5.049 1.917-9.818 3.835-14.82 5.752-9.818 3.835 6.452-2.853-3.132 1.216-3.834 1.684-7.667 3.367-11.501 5.285-20.804 9.821-41.187 21.090-60.308 33.764-4.301 2.853-8.602 5.752-12.903 8.839-2.618 1.917-5.049 3.601-7.667 5.518 0.234-0.234-7.901 5.986-3.834 2.853s-4.067 3.133-3.834 2.853c-2.384 1.917-4.769 3.835-7.2 5.986-4.769 4.069-9.584 8.137-14.119 12.205-17.018 15.339-33.052 31.847-47.639 49.57-1.917 2.385-4.067 4.77-5.984 7.202-0.468 0.701-6.919 9.119-2.151 2.619-3.132 4.069-6.218 8.371-9.35 12.674-6.919 9.821-13.418 19.875-19.634 30.162-5.75 9.353-11.033 19.174-16.035 28.994-2.618 5.285-5.283 10.289-7.667 15.573-1.216 2.385-2.151 4.77-3.366 7.202-0.935 1.917-1.683 3.835-2.618 5.752 1.683-3.601 1.683-3.601 0 0.234-8.369 22.025-15.802 44.052-21.317 67.060-2.852 11.504-5.049 23.241-6.919 34.98-0.234 2.151-0.701 4.303-0.935 6.454-1.683 10.756 0.701-7.436-0.468 3.367-0.701 6.454-1.449 13.188-1.917 19.64-1.917 24.878-1.917 50.038 0.234 75.197 0.468 5.986 1.216 11.972 1.683 17.958 1.216 10.522-0.701-4.536 0.234 1.917 0.468 2.619 0.701 5.518 1.216 8.137 2.151 12.907 4.535 25.626 7.667 38.066 5.517 22.727 12.903 45.034 21.785 66.779-3.132-7.436 0.935 2.151 1.449 3.133 0.935 1.917 1.683 3.835 2.618 5.752 2.618 5.752 5.517 11.504 8.135 17.023 5.283 10.289 10.753 20.342 16.737 30.162s12.202 19.407 18.887 28.994c3.132 4.302 6.218 8.371 9.35 12.674-4.769-6.454 1.449 1.917 2.151 2.619 2.384 2.853 4.535 5.752 6.919 8.371 15.1 17.958 31.369 34.699 48.807 50.506 7.901 6.921 15.802 13.655 23.936 20.108-6.218-4.77 1.917 1.45 2.618 1.917 2.618 1.917 5.049 3.601 7.667 5.518 5.049 3.601 10.285 7.202 15.568 10.522 19.401 12.674 39.738 23.71 60.541 33.296 2.852 1.45 5.75 2.619 8.602 3.835 9.584 4.302-6.685-2.385 3.132 1.216 5.049 1.917 9.818 3.835 14.82 5.752 11.501 4.302 23.234 7.903 34.969 11.271 10.753 3.133 21.785 5.752 33.052 7.903 5.75 1.216 11.735 2.151 17.719 3.133 2.618 0.468 5.283 0.935 8.135 1.216 4.301 0.701 4.301 0.701 0.234 0 2.151 0.234 4.301 0.468 6.452 0.701 24.404 2.619 48.807 3.601 73.257 2.619 12.202-0.468 24.169-1.684 36.372-2.853 1.449-0.234 7.2-0.935 0.234 0 3.366-0.468 6.452-0.935 9.818-1.45 6.452-0.935 12.903-2.151 19.169-3.601 23.001-4.77 45.955-11.037 67.975-19.174 5.984-2.151 11.968-4.536 17.719-6.921-6.452 2.619 0 0 1.683-0.701 2.384-1.216 4.769-2.151 7.2-3.367 11.501-5.285 22.72-11.037 33.753-17.256 9.117-5.051 18.186-10.522 26.788-16.275 5.283-3.367 10.519-6.921 15.568-10.522 1.683-1.216 3.366-2.385 5.049-3.601 1.216-0.701 11.501-8.605 5.283-3.835 18.186-14.123 35.203-29.461 51.005-45.969 32.539-33.997 54.558-64.628 77.324-110.13 2.384-4.77 4.535-9.587 6.919-14.357 0.935-1.917 6.685-15.807 4.067-8.839 4.769-11.738 9.117-23.71 13.184-35.915 7.2-22.493 12.67-45.736 16.503-69.211 0.468-3.133 0.935-6.454 1.449-9.821-0.935 7.202 0 0 0.234-1.917 0.701-5.986 1.216-11.972 1.683-18.191 0.514-10.896 0.982-23.101 0.982-35.307 0-18.66 16.503-36.85 35.904-35.915s35.904 15.807 35.904 35.915c-0.468 105.126-32.539 209.745-93.827 295.461-61.523 85.72-146.465 150.58-245.585 186.782-198.921 72.532-432.070 8.839-566.327-154.698-67.975-83.1-108.647-183.873-116.782-290.924-7.901-104.379 17.719-211.192 71.808-300.741 52.641-87.403 132.116-159.463 225.238-201.604 99.811-45.034 210.889-57.707 318.374-35.915 203.696 41.433 369.094 213.335 400.463 419.009 4.067 27.31 6.685 54.575 6.685 82.352 0 18.66-16.503 36.85-35.904 35.915-19.401-0.701-35.951-15.526-35.951-35.635l-0.002-0.006zM308.579 390.904c26.785-34.293 53.346-68.865 80.132-103.16 11.996-15.495 36.481-12.145 48.927 0 81.033 78.638 161.847 157.464 242.875 236.095 11.544 11.447 23.313 22.613 34.857 34.061 13.619 13.355 12.942 37.178 0 50.487-13.619 14.053-35.308 13.355-48.927 0-81.033-78.638-161.847-157.464-242.875-236.095-11.544-11.447-23.313-22.613-34.857-34.061h48.927c-26.785 34.293-53.346 68.865-80.132 103.16-11.769 15.030-36.706 12.61-48.927 0-14.565-14.983-11.769-35.457 0-50.487z" />
<glyph unicode="&#xe95c;" glyph-name="tick" d="M354.78 64.010l-354.766 363.361 80.837 82.703 273.93-280.545 588.37 602.461 80.837-82.778z" />
<glyph unicode="&#xe95d;" glyph-name="trolley" d="M370.697 163.572c62.989 0 114.069-50.958 114.069-113.795 0-62.8-51.081-113.759-114.069-113.759s-114.069 50.958-114.069 113.759c0 62.836 51.081 113.795 114.069 113.795zM798.37 163.572c62.989 0 114.069-50.958 114.069-113.795 0-62.8-51.081-113.759-114.069-113.759s-114.069 50.958-114.069 113.759c0 62.836 51.081 113.795 114.069 113.795zM142.606 959.979c40.717 0 79.194-28.119 91.468-66.833v0l14.993-46.926h713.261c21.646 0 41.269-10.741 52.514-28.668 11.172-18.001 12.165-40.29 2.61-59.684v0l-164.893-328.955c-11.098-22.474-35.831-37.797-61.298-37.797v0h-397l18.118-56.897h500.044v-113.759h-513.2c-40.755 0-79.231 28.119-91.505 66.833v0l-178.306 558.928h-129.394v113.759z" />
<glyph unicode="&#xe95e;" glyph-name="size" d="M901.633 144.316l-693.272 693.269h175.064v122.398h-383.408v-383.452h122.216l0.133 175.155 693.226-693.269-175.064 0.044v-122.444h383.453v383.452h-122.751z" />
<glyph unicode="&#xe95f;" glyph-name="twitter" d="M1023.986 765.566c-37.631-16.704-78.142-27.967-120.637-33.088 43.391 25.984 76.671 67.198 92.414 116.221-40.638-24.064-85.63-41.535-133.437-50.943-38.335 40.83-92.99 66.303-153.34 66.303-116.029 0-210.107-94.013-210.107-210.043 0-16.447 1.855-32.512 5.44-47.871-174.588 8.767-329.463 92.35-433.013 219.45-18.048-30.976-28.415-67.071-28.415-105.597 0-72.894 37.055-137.149 93.437-174.843-34.432 1.087-66.814 10.56-95.165 26.303v-2.688c0-101.757 72.447-186.684 168.444-205.946-17.536-4.864-36.095-7.423-55.295-7.423-13.567 0-26.687 1.344-39.486 3.775 26.687-83.453 104.318-144.188 196.154-145.852-71.871-56.382-162.363-89.918-260.857-89.918-16.896 0-33.599 0.96-50.111 2.88 92.99-59.583 203.387-94.334 322.040-94.334 386.421 0 597.745 320.12 597.745 597.68 0 9.151-0.192 18.175-0.64 27.199 41.087 29.632 76.734 66.622 104.829 108.734z" />
<glyph unicode="&#xe960;" glyph-name="unlock" d="M512 217.588c-41.221 0-74.679 34.381-74.679 76.815 0 42.4 33.457 76.781 74.679 76.781 41.253 0 74.679-34.381 74.679-76.781 0-42.433-33.425-76.815-74.679-76.815v0zM760.897 703.984c0 141.191-111.665 256.016-248.897 256.016s-248.865-114.827-248.865-256.016v-153.597h-124.464c-13.665 0-24.893-11.516-24.893-25.572v-179.235c0-226.221 178.324-409.58 398.223-409.58 219.931 0 398.223 183.359 398.223 409.58v179.235c0 14.056-11.228 25.572-24.893 25.572h-522.655v153.597c0 84.733 66.98 153.597 149.325 153.597s149.325-68.863 149.325-153.597h99.572z" />
<glyph unicode="&#xe961;" glyph-name="user" d="M989.669 86.285c-44.799 61.222-272.313 35.817-307.030 105.764-68.885 138.722-40.767 112.95 4.105 147.3 42.123 32.261 40.143 117.276 65.915 147.447 26.139 30.648 38.201 118.449 28.338 151.515-13.015 43.845-33.032 20.017-36.038 53.084-6.562 71.378 11.475 130.070-28.704 164.787-38.823 33.543-87.399 102.794-166.511 103.794-27.531 0.321-58.804-7.891-94.657-28.458-170.654 18.22-169.553-168.746-176.044-240.123-3.043-33.068-23.060-9.238-36.074-53.084-9.825-33.068 2.236-120.868 28.374-151.515 25.772-30.171 23.756-115.185 65.879-147.447 44.872-34.35 73.028-8.578 4.105-147.336-34.718-69.947-262.194-44.505-307.030-105.728-34.278-46.779-34.278-150.269-34.278-150.269h1023.96c0 0 0 103.491-34.314 150.269z" />
<glyph unicode="&#xe962;" glyph-name="video-camera" d="M768 503.724v119.423c0 13.739-11.549 25.026-25.604 25.026h-132.407l-153.589 150.124h-353.967v-100.105h311.568l51.207-50.020h-439.587c-14.089 0-25.604-11.287-25.604-25.026v-500.425c0-13.77 11.516-25.026 25.604-25.026h716.775c14.056 0 25.604 11.256 25.604 25.026v119.423l255.973-144.448v550.476l-255.973-144.448z" />
<glyph unicode="&#xe963;" glyph-name="vimeo" d="M0.011 651.602l41.536-54.527c0 0 85.823 67.583 114.431 33.856 28.543-33.856 137.662-441.978 174.142-517.241 31.744-66.112 119.487-153.406 215.678-91.007 96.191 62.335 415.802 335.292 473.082 657.591 57.151 322.236-384.763 254.781-431.483-25.984 116.991 70.271 179.326-28.543 119.55-140.35-59.776-111.678-114.303-184.574-142.911-184.574-28.543 0-50.56 74.752-83.199 205.437-33.856 135.039-33.664 378.427-174.206 350.844-132.478-26.047-306.62-234.045-306.62-234.045z" />
<glyph unicode="&#xe964;" glyph-name="volume-high" d="M512.153 959.974v-1023.943l-320.064 255.986h-64.020c-70.415 0-128.042 57.614-128.042 128.014v0 255.944c0 70.441 57.627 128.014 128.042 128.014v0h64.020l320.064 255.986zM874.231 810.040c199.653-199.608 199.653-524.427 0-724.077v0l-90.504 90.525c149.74 149.707 149.74 393.321 0 543.067v0zM674.507 674.294c124.742-124.796 124.742-327.787-0.042-452.584v0l-90.545 90.525c74.869 74.853 74.869 196.68 0 271.575v0z" />
<glyph unicode="&#xe965;" glyph-name="volume-low" d="M640.091 959.986v-1023.974l-320.060 255.994h-64.020c-70.414 0-127.999 57.616-127.999 128.017v0 255.952c0 70.443 57.585 128.017 127.999 128.017v0h64.020l320.060 255.994zM802.439 674.299c124.741-124.8 124.741-327.797-0.040-452.597v0l-90.503 90.527c74.829 74.856 74.829 196.687-0.040 271.583v0z" />
<glyph unicode="&#xe966;" glyph-name="volume-off" d="M455.661 899.753v-903.507l-283.58 225.877h-56.929c-62.655 0-115.142 50.838-115.142 112.957v0 225.84c0 62.156 52.488 112.957 115.142 112.957v0h56.929l283.58 225.877zM943.455 671.448l80.529-79.842-144.836-143.597 144.836-143.597-80.529-79.842-144.836 143.597-144.836-143.597-80.566 79.842 144.873 143.597-144.873 143.597 80.566 79.842 144.836-143.597 144.836 143.597z" />
<glyph unicode="&#xe967;" glyph-name="close-circle" d="M149.8 810.18c199.725 199.725 524.689 199.725 724.389 0.025s199.725-524.689 0-724.414c-199.7-199.7-524.689-199.673-724.389 0.025s-199.7 524.664 0 724.363zM230.277 729.703c-155.324-155.324-155.324-408.087 0-563.41s408.087-155.324 563.41 0c155.35 155.35 155.324 408.087 0 563.41s-408.060 155.35-563.41 0zM431.498 608.974l80.502-80.502 80.502 80.502 80.477-80.477-80.502-80.502 80.502-80.502-80.477-80.477-80.502 80.502-80.502-80.502-80.477 80.477 80.502 80.502-80.502 80.502 80.477 80.477z" />
<glyph unicode="&#xe968;" glyph-name="close" d="M1024.003 879.572l-80.436 80.436-431.546-431.546-431.546 431.546-80.472-80.436 431.583-431.546-431.583-431.546 80.472-80.472 431.546 431.545 431.546-431.545 80.436 80.472-431.545 431.546z" />
<glyph unicode="&#xe969;" glyph-name="youtube" d="M406.278 315.175v287.729l276.658-144.376-276.658-143.352zM1013.734 652.694c0 0-9.983 70.525-40.702 101.627-38.909 40.829-82.556 41.021-102.587 43.39-143.289 10.367-358.253 10.367-358.253 10.367h-0.448c0 0-214.901 0-358.189-10.367-20.031-2.368-63.613-2.56-102.587-43.39-30.718-31.102-40.702-101.627-40.702-101.627s-10.24-82.875-10.24-165.687v-77.691c0-82.875 10.24-165.752 10.24-165.752s9.983-70.525 40.702-101.627c38.974-40.766 90.108-39.485 112.89-43.774 81.915-7.807 348.142-10.24 348.142-10.24s215.156 0.319 358.445 10.687c20.031 2.368 63.676 2.56 102.587 43.325 30.718 31.102 40.702 101.627 40.702 101.627s10.24 82.875 10.24 165.752v77.691c0 82.812-10.24 165.687-10.24 165.687v0z" />
<glyph unicode="&#xe96a;" glyph-name="youtube-logo" d="M836.92 471.779c103.293 0 187.068-83.837 187.068-187.131v0-150.397c0-103.229-83.774-187.068-187.068-187.068v0h-649.903c-103.293 0-187.003 83.837-187.003 187.068v0 150.397c0 103.293 83.71 187.131 187.003 187.131v0zM788.089 320.103c-23.231 0-42.047-7.104-56.703-21.184-14.719-14.143-22.015-32.575-22.015-54.975v0-116.413c0-25.024 6.784-44.607 20.032-58.75 13.312-14.335 31.615-21.376 54.783-21.376 25.792 0 45.246 6.655 58.11 19.967 13.12 13.504 19.583 33.599 19.583 60.159v0 13.312h-53.31v-11.839c0-15.232-1.792-25.024-5.119-29.567-3.456-4.48-9.472-6.72-18.048-6.72-8.256 0-14.143 2.623-17.599 7.872-3.328 5.311-5.056 14.784-5.056 28.415v0 48.831h99.134v66.111c0 24.575-6.4 43.391-19.135 56.511-12.672 13.056-30.911 19.648-54.654 19.648zM398.147 313.64h-51.839v-216.698c0-15.487 3.072-26.944 9.088-34.687 6.144-7.807 15.040-11.584 27.136-11.584 9.664 0 19.711 2.688 30.016 8.32 10.432 5.44 20.351 13.44 29.887 23.935v0-28.48h51.839v259.193h-51.839v-196.859c-4.864-5.632-10.176-10.24-16.063-13.951-5.824-3.648-10.687-5.376-14.4-5.376-4.8 0-8.383 1.279-10.624 4.159-2.112 2.688-3.199 7.104-3.199 13.248v0 198.779zM585.599 405.797h-52.415v-351.351h52.415v19.903c6.72-7.999 14.208-13.824 22.144-17.599 7.872-3.775 16.896-5.568 27.071-5.568 15.295 0 27.136 4.8 35.2 14.592 8.191 9.856 12.16 23.935 12.16 42.174v0 143.869c0 21.184-4.224 37.375-12.928 48.447-8.64 11.071-21.119 16.512-37.567 16.512-8.064 0-16-1.984-23.935-6.144-7.744-4.096-15.168-10.176-22.144-17.983v0 113.15zM323.588 405.797h-179.196v-51.071h60.351v-300.28h58.431v300.28h60.414v51.071zM607.255 275.643c6.912 0 12.352-2.239 16.128-6.72 3.712-4.543 5.44-11.136 5.44-19.967v0-133.821c0-8.32-1.536-14.143-4.416-17.856-3.007-3.712-7.68-5.568-14.016-5.568-4.416 0-8.512 1.024-12.48 2.815-4.032 1.792-8.128 5.056-12.352 9.151v0 161.532c3.583 3.583 7.039 6.271 10.687 7.936s7.296 2.496 11.008 2.496zM785.881 274.767c7.872 0 13.759-2.368 17.28-7.168 3.52-4.608 5.376-12.415 5.376-23.296v0-26.176h-45.759v26.176c0 10.879 1.728 18.688 5.376 23.296 3.583 4.8 9.472 7.168 17.728 7.168zM505.831 854.464c24.127 0 43.839-6.912 59.391-20.735 15.295-13.696 22.975-31.679 22.975-53.375v0-147.452c0-24.448-7.488-43.518-22.591-57.534-15.168-13.888-35.968-20.8-62.463-20.8-25.535 0-45.951 7.168-61.246 21.568-15.232 14.4-22.912 33.599-22.912 57.855v0 148.028c0 22.144 7.872 39.743 23.488 52.799 15.679 13.12 36.863 19.648 63.358 19.648zM693.729 847.225v-218.874c0-6.72 1.408-11.584 3.775-14.592 2.368-3.072 6.463-4.543 11.904-4.543 4.224 0 9.727 1.984 16.255 5.952 6.528 4.096 12.544 9.151 17.983 15.36v0 216.698h58.366v-285.497h-58.366v31.679c-10.687-11.647-21.887-20.608-33.599-26.623-11.584-6.016-22.847-9.216-33.791-9.216-13.567 0-23.615 4.351-30.527 12.928-6.784 8.383-10.24 21.119-10.24 38.143v0 238.585h58.239zM260.109 948.822l42.623-154.748h4.096l40.703 154.748h66.687l-76.479-226.49v-160.572h-65.598v153.34l-78.206 233.722h66.174zM502.951 804.992c-7.039 0-12.864-1.855-17.344-5.695-4.416-3.904-6.655-8.896-6.655-15.168v0-155.516c0-7.872 2.112-13.824 6.271-18.112 4.096-4.416 10.048-6.463 17.728-6.463 7.936 0 14.208 2.176 18.816 6.528 4.672 4.351 7.039 10.432 7.039 18.048v0 155.516c0 6.271-2.368 11.263-7.104 15.168-4.735 3.84-11.008 5.695-18.751 5.695z" />
<glyph unicode="&#xe96b;" glyph-name="cog-alt-icon" d="M958.176 170.324v0 0l-81.756 81.756c12.962 24.926 23.928 50.849 32.902 78.765h114.658v235.299h-115.656c-7.976 27.917-18.943 53.839-32.902 78.765l81.756 81.756-166.504 167.501-81.756-81.756c-3.989 1.994-7.976 3.989-12.962 5.983-20.938 10.968-42.872 18.943-65.804 25.923v115.656h-236.296v-115.656c-22.932-6.979-44.866-15.953-65.804-25.923-3.989-1.994-7.976-3.989-12.962-5.983l-81.756 81.756-49.851-49.851-116.652-117.65 81.756-81.756c-12.962-24.926-23.928-50.849-32.902-78.765h-115.656v-236.296h115.656c7.976-27.917 18.943-53.839 32.902-78.765l-81.756-80.76 167.501-167.501 81.756 81.756c3.989-1.994 8.973-3.989 12.962-6.979 9.97-4.985 19.941-9.97 30.908-13.958 10.968-4.985 22.932-8.973 34.896-11.964v-115.656h236.296v115.656c27.917 7.976 53.839 18.943 78.765 32.902l81.756-81.756 51.845 51.845 114.658 115.656zM790.676 58.657l-75.775 75.775-12.962-7.976c-3.989-1.994-7.976-3.989-11.964-6.979-21.934-11.964-45.864-21.934-70.788-29.911-3.989-0.996-8.973-2.991-12.962-3.989l-14.955-3.989v-106.682h-157.531v106.682l-14.955 3.989c-4.985 0.996-9.97 2.991-13.958 3.989-23.928 6.979-47.858 16.949-69.792 28.913-3.989 1.994-8.973 4.985-12.962 6.979l-12.962 7.976-75.775-75.775-111.667 111.667 74.777 74.777-7.976 12.962c-17.947 29.911-30.908 61.816-39.881 96.712l-3.989 14.955h-104.688v157.531h106.682l0.996 4.985 2.991 9.97c2.991 11.964 6.979 24.926 11.964 35.892 7.976 20.938 16.949 40.879 27.917 59.822l7.976 12.962-75.775 75.775 111.667 111.667 75.775-75.775 12.962 7.976c29.911 17.947 61.816 30.908 96.712 39.881l14.955 3.989v107.679h157.531v-106.682l14.955-3.989c33.9-8.973 66.801-22.932 96.712-39.881l12.962-7.976 75.775 75.775 111.667-111.667-75.775-75.775 7.976-12.962c10.968-18.943 20.938-38.885 27.917-59.822 3.989-11.964 7.976-23.928 11.964-35.892l2.991-9.97 0.996-4.985h106.682v-157.531h-106.682l-3.989-14.955c-8.973-33.9-22.932-66.801-39.881-96.712l-7.976-12.962 74.777-74.777-76.771-76.771-35.892-34.896zM303.129 504.33c0 0 0 0 0 0s0 0 0 0v0zM725.868 485.386c-0.996 5.983-1.994 12.962-3.989 18.943v0 0c0 0 0 0 0 0s0 0 0 0v0c0 0 0 0 0 0s0 0 0 0c-2.991 11.964-6.979 22.932-11.964 33.9-2.991 5.983-5.983 11.964-8.973 17.947v0c-7.976 13.958-16.949 25.923-27.917 37.887-11.964 12.962-24.926 23.928-38.885 33.9-3.989 2.991-7.976 4.985-11.964 6.979v0 0c-9.97 5.983-20.938 10.968-32.902 14.955-5.983 1.994-12.962 4.985-19.941 5.983v0c-2.991 0.996-6.979 1.994-9.97 1.994-6.979 1.994-13.958 2.991-20.938 3.989-7.976 0.996-15.953 0.996-24.926 0.996v0c-18.943 0-37.887-1.994-55.834-6.979v0c-6.979-1.994-12.962-3.989-19.941-5.983-10.968-3.989-21.934-8.973-32.902-14.955v0c-20.938-11.964-38.885-26.92-54.837-44.866-8.973-10.968-17.947-21.934-24.926-34.896-9.97-15.953-16.949-33.9-21.934-52.843 0 0 0 0 0 0v0c0 0 0 0 0 0-4.985-17.947-6.979-36.89-6.979-55.834v0c0 0 0 0 0 0 0-18.943 2.991-37.887 6.979-55.834 0 0 0 0 0 0v0c0 0 0 0 0 0 4.985-18.943 11.964-35.892 21.934-52.843 18.943-32.902 45.864-59.822 78.765-78.765 15.953-9.97 33.9-16.949 52.843-21.934v0c0 0 0 0 0 0s0 0 0 0v0c1.994-0.996 4.985-0.996 6.979-1.994 15.953-3.989 31.905-5.983 48.854-5.983v0c6.979 0 12.962 0 19.941 0.996 11.964 0.996 23.928 2.991 35.892 5.983v0c0 0 0 0 0 0s0 0 0 0v0c6.979 1.994 12.962 3.989 19.941 5.983 10.968 3.989 21.934 8.973 32.902 14.955 32.902 18.943 59.822 45.864 78.765 78.765 2.991 5.983 6.979 11.964 8.973 17.947 4.985 10.968 8.973 21.934 11.964 33.9 0 0 0 0 0 0s0 0 0 0v0c0 0 0 0 0 0s0 0 0 0v0 0c1.994 5.983 2.991 12.962 3.989 18.943 1.994 11.964 2.991 24.926 2.991 36.89 0 0 0 0 0 0v0c0.996 17.947 0 29.911-1.994 41.875zM530.451 272.022c-5.983-0.996-11.964-0.996-17.947-0.996s-11.964 0-17.947 0.996c-6.979 0.996-12.962 1.994-19.941 2.991-2.991 0.996-4.985 0.996-7.976 1.994v0c-14.955 3.989-28.913 9.97-42.872 17.947v0c-26.92 14.955-48.854 37.887-64.807 64.807v0 0c-2.991 4.985-4.985 9.97-7.976 14.955-3.989 8.973-7.976 17.947-9.97 27.917v0 0c-2.991 11.964-4.985 24.926-5.983 38.885 0 1.994 0 4.985 0 6.979 0 15.953 1.994 30.908 5.983 45.864v0c2.991 9.97 5.983 18.943 9.97 27.917 1.994 4.985 4.985 9.97 7.976 14.955v0c5.983 9.97 12.962 19.941 19.941 27.917 4.985 5.983 10.968 10.968 15.953 15.953 8.973 7.976 17.947 13.958 27.917 19.941v0 0c1.994 0.996 4.985 2.991 6.979 3.989 4.985 2.991 10.968 4.985 15.953 6.979 5.983 1.994 11.964 4.985 18.943 5.983v0c14.955 3.989 29.911 5.983 45.864 5.983s30.908-1.994 45.864-5.983v0c5.983-1.994 12.962-3.989 18.943-5.983s10.968-4.985 15.953-6.979c1.994-0.996 4.985-2.991 6.979-3.989v0 0c9.97-5.983 19.941-12.962 27.917-19.941 5.983-4.985 10.968-10.968 15.953-15.953 7.976-8.973 13.958-17.947 19.941-27.917v0 0c7.976-12.962 13.958-27.917 17.947-42.872v0 0c0.996-4.985 1.994-9.97 2.991-14.955 1.994-9.97 2.991-19.941 2.991-30.908 0-2.991 0-4.985 0-7.976 0-5.983-0.996-12.962-1.994-18.943-0.996-6.979-1.994-12.962-3.989-18.943v0c-3.989-14.955-9.97-28.913-17.947-42.872v0c-14.955-26.92-37.887-48.854-64.807-64.807v0c-12.962-7.976-27.917-13.958-42.872-17.947v0c-2.991-0.996-4.985-0.996-7.976-1.994s-8.973-1.994-15.953-2.991zM568.339 657.872v0 0c0 0 0 0 0 0s0 0 0 0zM455.674 657.872v0 0c0 0 0 0 0 0s0 0 0 0zM303.129 392.662c0 0 0 0 0 0s0 0 0 0v0z" />
<glyph unicode="&#xe96c;" glyph-name="collaboration-alt-icon" d="M510.977 759.292c-21.504 0-40.959 9.216-55.295 23.552s-22.527 34.816-23.552 56.32c0 22.527 9.216 41.984 23.552 56.32s33.791 23.552 55.295 23.552c21.504 0 40.959-9.216 55.295-23.552s22.527-34.816 23.552-56.32c0-22.527-9.216-41.984-23.552-56.32-13.312-15.359-32.768-23.552-55.295-23.552h88.063c18.432 21.504 29.695 49.152 29.695 79.87 0 66.559-53.247 120.831-117.758 120.831-65.535 0-117.758-54.272-117.758-120.831 0-30.72 11.264-59.392 29.695-79.87h88.063zM294.914 637.437v-99.327h38.911v99.327c0 22.527 9.216 43.008 23.552 57.343s34.816 23.552 56.32 23.552h195.582c22.527 0 41.984-9.216 56.32-23.552s23.552-34.816 23.552-57.343v-99.327h38.911v99.327c0 67.583-53.247 121.855-118.783 121.855h-195.582c-65.535 0-118.783-54.272-118.783-121.855zM98.309 237.059c0-30.72 11.264-59.392 29.695-79.87h88.063c-21.504 0-40.959 9.216-55.295 23.552s-23.552 34.816-23.552 56.32c0 22.527 9.216 41.984 23.552 56.32s33.791 23.552 55.295 23.552c21.504 0 40.959-9.216 55.295-23.552s22.527-34.816 23.552-56.32c0-22.527-9.216-41.984-23.552-56.32s-33.791-23.552-55.295-23.552h88.063c18.432 21.504 29.695 49.152 29.695 79.87 0 66.559-53.247 120.831-117.758 120.831s-117.758-54.272-117.758-120.831zM38.917 35.332c0 22.527 9.216 43.008 23.552 57.343s34.816 23.552 56.32 23.552h195.582c22.527 0 41.984-9.216 56.32-23.552s23.552-34.816 23.552-57.343v-99.327h38.911v99.327c0 67.583-53.247 121.855-118.783 121.855h-195.582c-65.535 0-118.783-54.272-118.783-121.855v-99.327h38.911v99.327zM718.846 157.187h88.063c-21.504 0-40.959 9.216-55.295 23.552s-22.527 34.816-23.552 56.32c0 22.527 9.216 41.984 23.552 56.32s33.791 23.552 55.295 23.552c21.504 0 40.959-9.216 55.295-23.552s22.527-34.816 22.527-56.32c0-22.527-9.216-41.984-22.527-56.32-14.336-14.336-33.791-23.552-55.295-23.552h88.063c18.432 21.504 29.695 49.152 29.695 79.87 0 66.559-53.247 120.831-117.758 120.831-65.535 0-117.758-54.272-117.758-120.831-1.023-30.72 10.239-59.392 29.695-79.87zM905.212 157.187h-195.582c-65.535 0-118.783-54.272-118.783-121.855v-99.327h38.911v99.327c0 22.527 9.216 43.008 23.552 57.343s34.816 23.552 56.32 23.552h195.582c22.527 0 41.984-9.216 56.32-23.552s23.552-34.816 23.552-57.343v-99.327h38.911v99.327c0 66.559-53.247 121.855-118.783 121.855zM672.766 322.049l-141.31 144.382v142.335h-39.936v-142.335l-141.31-144.382 27.648-28.672 133.119 136.19 134.142-136.19z" />
</font>
</defs>
</svg>
